Завантажити та скачати торренти українською


Vladislav Makarov, Yuriy Yaremchuk, Andrij Orel - Gogolfest Projekt (2008) [FLAC] | Jazz

Нові коментарі

Нова тема   Відповісти
Автор Повідомлення
kolpavel 
VIP


З нами з: 04.05.14
Востаннє: 03.12.16
Повідомлень: 1060

2015-10-29 15:10  
Vladislav Makarov, Yuriy Yaremchuk, Andrij Orel - Gogolfest Projekt (2008) [FLAC] | Jazz


Vladislav Makarov, Yuriy Yaremchuk, Andrij Orel - Gogolfest Projekt (2008) [FLAC] | Jazz


Стиль: Free Improvisation, Avant-garde Jazz
Країна, місто: Україна, Львiв
Сайти: Офіційний сайт
Видавець: 3yar records
Виконавці:
Юрій Яремчук - саксофон тенор і кларнет, бас-кларнет.
Владислав Макаров - віолончель.
Андрiй Орел - акустична гітара.
Пісні:

    1. For Cello And Clarinet And Acoustic Guitar - 7:18
    2. For Cello And Acoustic Guitar And Tenor Sax - 5:08
    3. For Cello And Bass Clarinet - 11:54
    4. For Cello And Tenor Sax - 8:32
    5. For Cello And Bass Clarinet - 2:35
    6. Untitled - 5:09

Тривалість: 00:40:36
Мова: інструментальні композиції
Аудіо-кодек: FLAC
Бітрейт: 389-564 кб/с
Джерело: трекер
Додаткова інформація:
EAC log
Exact Audio Copy V0.99 prebeta 4 from 23. January 2008

EAC extraction logfile from 24. November 2009, 10:45

Yuriy Yaremchuk / Gogolfest Projekt

Used drive : HL-DT-STDVDRAM GSA-H10A Adapter: 1 ID: 3

Read mode : Secure
Utilize accurate stream : Yes
Defeat audio cache : Yes
Make use of C2 pointers : No

Read offset correction : 667
Overread into Lead-In and Lead-Out : No
Fill up missing offset samples with silence : Yes
Delete leading and trailing silent blocks : No
Null samples used in CRC calculations : Yes
Used interface : Native Win32 interface for Win NT & 2000
Gap handling : Appended to previous track

Used output format : User Defined Encoder
Selected bitrate : 1024 kBit/s
Quality : High
Add ID3 tag : No
Command line compressor : C:\Program Files\FLAC\flac.exe
Additional command line options : -8 -V -T "ARTIST=%a" -T "TITLE=%t" -T "ALBUM=%g" -T "DATE=%y" -T "TRACKNUMBER=%n" -T "GENRE=%m" -T "COMMENT=EAC FLAC -8" %s

TOC of the extracted CD

Track | Start | Length | Start sector | End sector
---------------------------------------------------------
1 | 0:00.00 | 7:18.72 | 0 | 32921
2 | 7:18.72 | 5:08.09 | 32922 | 56030
3 | 12:27.06 | 11:54.66 | 56031 | 109646
4 | 24:21.72 | 8:32.67 | 109647 | 148113
5 | 32:54.64 | 2:35.69 | 148114 | 159807
6 | 35:30.58 | 5:09.71 | 159808 | 183053

Track 1

Filename D:\temp\!!\01 – For Cello and clarinet and acoustic guitar.wav

Pre-gap length 0:00:02.00

Peak level 85.8 %
Track quality 100.0 %
Test CRC C134D898
Copy CRC C134D898
Track not present in AccurateRip database
Copy OK

Track 2

Filename D:\temp\!!\02 – For Cello and acoustic guitar and tenor sax.wav

Pre-gap length 0:00:02.00

Peak level 92.0 %
Track quality 99.9 %
Test CRC AB9AA0B8
Copy CRC AB9AA0B8
Track not present in AccurateRip database
Copy OK

Track 3

Filename D:\temp\!!\03 – For Cello and bass clarinet.wav

Pre-gap length 0:00:02.00

Peak level 47.7 %
Track quality 100.0 %
Test CRC B0B35BE8
Copy CRC B0B35BE8
Track not present in AccurateRip database
Copy OK

Track 4

Filename D:\temp\!!\04 – For Cello and tenor sax.wav

Pre-gap length 0:00:02.00

Peak level 50.4 %
Track quality 100.0 %
Test CRC AEAD7050
Copy CRC AEAD7050
Track not present in AccurateRip database
Copy OK

Track 5

Filename D:\temp\!!\05 – For Cello and bass clarinet.wav

Pre-gap length 0:00:02.00

Peak level 45.0 %
Track quality 100.0 %
Test CRC D29FDA0E
Copy CRC D29FDA0E
Track not present in AccurateRip database
Copy OK

Track 6

Filename D:\temp\!!\06 – Track06.wav

Pre-gap length 0:00:02.00

Peak level 78.6 %
Track quality 100.0 %
Test CRC F10837D0
Copy CRC F10837D0
Track not present in AccurateRip database
Copy OK

None of the tracks are present in the AccurateRip database

No errors occurred

End of status report


Якщо Ви справді бажаєте підтримати українське - після прослуховування, якщо музика вам сподобалась, придбайте ліцензійний диск. Підтримаймо вітчизняних виконавців!


Срібний реліз (на рейтинг впливає 50% завантаженого)
 Трекер:    Зареєстрований   

Завантажити / скачати українську музику



відео для новачків



 Зареєстрований:   2015-10-29 15:10
 Розмір:   137 MB 
 Оцінка музики:   10/10 (Голосів: 1)
   
Ваш часовий пояс: GMT + 2 Години

Нова тема   Відповісти