Завантажити та скачати торренти українською


Yuriy Yaremchuk, Mark Tokar (Юрій Яремчук, Марк Токар) - Eight Compositions (2005) [FLAC] | Jazz

Нові коментарі

Нова тема   Відповісти
Автор Повідомлення
kolpavel 
VIP


З нами з: 04.05.14
Востаннє: 07.12.16
Повідомлень: 1059

2015-10-28 21:59  
Yuriy Yaremchuk, Mark Tokar (Юрій Яремчук, Марк Токар) - Eight Compositions (2005) [FLAC] | Jazz


Yuriy Yaremchuk, Mark Tokar (Юрій Яремчук, Марк Токар) - Eight Compositions (2005) [FLAC] | Jazz


Стиль: Avant-garde Jazz / Free Improvisation
Країна, місто: Україна, Львiв
Сайти: Офіційний сайт
Видавець: 3yar records
Виконавці:
Юрій Яремчук - тенор саксофон, сопрано саксофон.
Марк Токар - контрабас
Пісні:
    01. Composition - 5 4:43
    02. Coto - 8:17
    03. Nine and Eight - 5:40
    04. Composition 4 - 5:36
    05. Etude - 4:49
    06. Transfigure - 5:26
    07. Composition 3 - 6:12
    08. Long Line - 4:08

Тривалість: 00:44:51
Мова: інструментальні композиції
Аудіо-кодек: FLAC
Бітрейт: 431-601 кб/с
Джерело: трекер
Додаткова інформація:
EAC log
Exact Audio Copy V0.99 prebeta 4 from 23. January 2008

EAC extraction logfile from 30. October 2009, 11:35

Yuriy Yaremchuk, Mark Tokar / Eight Compositions

Used drive : HL-DT-STDVDRAM GSA-H10A Adapter: 1 ID: 3

Read mode : Secure
Utilize accurate stream : Yes
Defeat audio cache : Yes
Make use of C2 pointers : No

Read offset correction : 667
Overread into Lead-In and Lead-Out : No
Fill up missing offset samples with silence : Yes
Delete leading and trailing silent blocks : No
Null samples used in CRC calculations : Yes
Used interface : Native Win32 interface for Win NT & 2000
Gap handling : Appended to previous track

Used output format : User Defined Encoder
Selected bitrate : 1024 kBit/s
Quality : High
Add ID3 tag : No
Command line compressor : C:\Program Files\FLAC\flac.exe
Additional command line options : -8 -V -T "ARTIST=%a" -T "TITLE=%t" -T "ALBUM=%g" -T "DATE=%y" -T "TRACKNUMBER=%n" -T "GENRE=%m" -T "COMMENT=EAC FLAC -8" %s

TOC of the extracted CD

Track | Start | Length | Start sector | End sector
---------------------------------------------------------
1 | 0:00.00 | 4:43.36 | 0 | 21260
2 | 4:43.36 | 8:16.68 | 21261 | 58528
3 | 13:00.29 | 5:40.22 | 58529 | 84050
4 | 18:40.51 | 5:35.54 | 84051 | 109229
5 | 24:16.30 | 4:49.17 | 109230 | 130921
6 | 29:05.47 | 5:25.55 | 130922 | 155351
7 | 34:31.27 | 6:12.20 | 155352 | 183271
8 | 40:43.47 | 4:07.48 | 183272 | 201844

Track 1

Filename D:\temp\!!\01. Yuriy Yaremchuk, Mark Tokar – Composition 5.wav

Pre-gap length 0:00:02.00

Peak level 92.3 %
Track quality 100.0 %
Test CRC 9365D6E6
Copy CRC 9365D6E6
Track not present in AccurateRip database
Copy OK

Track 2

Filename D:\temp\!!\02. Yuriy Yaremchuk, Mark Tokar – Coto.wav

Pre-gap length 0:00:02.00

Peak level 90.7 %
Track quality 100.0 %
Test CRC E1194F5E
Copy CRC E1194F5E
Track not present in AccurateRip database
Copy OK

Track 3

Filename D:\temp\!!\03. Yuriy Yaremchuk, Mark Tokar – Nineand Eight.wav

Pre-gap length 0:00:02.00

Peak level 100.0 %
Track quality 100.0 %
Test CRC 38D83EE8
Copy CRC 38D83EE8
Track not present in AccurateRip database
Copy OK

Track 4

Filename D:\temp\!!\04. Yuriy Yaremchuk, Mark Tokar – Composition 4.wav

Pre-gap length 0:00:02.00

Peak level 90.3 %
Track quality 99.9 %
Test CRC AB63C618
Copy CRC AB63C618
Track not present in AccurateRip database
Copy OK

Track 5

Filename D:\temp\!!\05. Yuriy Yaremchuk, Mark Tokar – Etude.wav

Pre-gap length 0:00:02.00

Peak level 59.4 %
Track quality 99.9 %
Test CRC AB2990DB
Copy CRC AB2990DB
Track not present in AccurateRip database
Copy OK

Track 6

Filename D:\temp\!!\06. Yuriy Yaremchuk, Mark Tokar – Transfigure.wav

Pre-gap length 0:00:02.00

Peak level 86.6 %
Track quality 99.9 %
Test CRC 3FBA1270
Copy CRC 3FBA1270
Track not present in AccurateRip database
Copy OK

Track 7

Filename D:\temp\!!\07. Yuriy Yaremchuk, Mark Tokar – Composition 3.wav

Pre-gap length 0:00:02.00

Peak level 82.7 %
Track quality 100.0 %
Test CRC 7AB463F3
Copy CRC 7AB463F3
Track not present in AccurateRip database
Copy OK

Track 8

Filename D:\temp\!!\08. Yuriy Yaremchuk, Mark Tokar – Long Line.wav

Pre-gap length 0:00:02.00

Peak level 97.5 %
Track quality 100.0 %
Test CRC 121BD522
Copy CRC 121BD522
Track not present in AccurateRip database
Copy OK

None of the tracks are present in the AccurateRip database

No errors occurred

End of status report


Якщо Ви справді бажаєте підтримати українське - після прослуховування, якщо музика вам сподобалась, придбайте ліцензійний диск. Підтримаймо вітчизняних виконавців!


Срібний реліз (на рейтинг впливає 50% завантаженого)
 Трекер:    Зареєстрований   

Завантажити / скачати українську музику



відео для новачків



 Зареєстрований:   2015-10-28 21:59
 Розмір:   163 MB 
 Оцінка музики:   10/10 (Голосів: 1)
   
Ваш часовий пояс: GMT + 2 Години

Нова тема   Відповісти