Завантажити та скачати торренти українською


Дежа Вю / Deja vu (2006) Remux 1080p Ukr/Eng | Sub Ukr/Eng

Нові коментарі

Нова тема   Відповісти
Автор Повідомлення
Alex60 
Забанено
Забанено


З нами з: 06.12.14
Востаннє: 24.07.16
Повідомлень: 40

2015-10-25 20:00  
Дежа Вю / Deja vu (2006) Remux 1080p Ukr/Eng | Sub Ukr/Eng

Дежа Вю / Deja vu (2006) Remux 1080p Ukr/Eng | Sub Ukr/Eng


Жанр: трилер, бойовик, фантастика, драма, екшн, мелодрама
Країна: США, Великобританія



Кінокомпанія: Touchstone Pictures
Режисер: Тоні Скотт
Актори: Дензіл Вашингтон, Вел Кілмер, Адам Голдберг, Паула Паттон, Джеймс Кевізел, Елден Хенсон, Еріка Олександр, Брюс Грінвуд, Річ Хатчмен, Метт Кревен та iншi.

Сюжет:
Кожний з нас хоч би раз в житті переживав дивне відчуття дежа вю - спалах в підсвідомості, коли здається, що ти вже десь бачив людину, з якою тільки що познайомився, або бував в місці, куди насправді потрапив вперше в житті. А що коли насправді це попередження минулого або підказка з майбутнього? Думаєш, тобі це здається? Обернися... і подивися ще раз!


Тривалість: 02:06:26
Якість: Remux
Відео:
кодек: VC-1
розмір кадру: 1 920х 1080
бітрейт: 23171 кб/с

Аудіо # 1:
мова: українська
переклад: професійний дубльований [Blu-ray CEE / НеваФільм Україна]
кодек: 2.0
бітрейт: 320 кб/с

Аудіо # 2:
мова: англійська
переклад: оригінал
кодек: 5.1
бітрейт: 640 кб/с

Аудіо # 3:
мова: англійська
переклад: оригінал
кодек: -HD 5.1
бітрейт: 2230 кб/с

Аудіо # 4:
мова: англійська
переклад: оригінал Commentary [T. Scott, J. Bruckheimer and B. Marsilii]
кодек: 2.0
бітрейт: 192 кб/с

Субтитри:
мова: українська (повні)
тип: програмні (м'які)
формат: *.srt

Субтитри:
мова: англійська (повні)
тип: програмні (м'які)
формат: *.srt
MediaInfo
General
Unique ID : 188116861258591957386123870760867146146 (0x8D85FD575B4B04159E70BE7A5B7329A2)
Complete name : S:\Deja Vu [2006] ReMux UkrEng.mkv
Format : Matroska
Format version : Version 4 / Version 2
File size : 23.5 GiB
Duration : 2h 6mn
Overall bit rate mode : Variable
Overall bit rate : 26.5 Mbps
Movie name : Deja Vu [2006] 'ReMux ©
Encoded date : UTC 2015-10-25 16:08:37
Writing application : mkvmerge v8.3.0 ('Over the Horizon') 64bit
Writing library : libebml v1.3.1 + libmatroska v1.4.2
Attachements : cover.jpg
DURATION : 02:06:45.600000000
NUMBER_OF_FRAMES : 237675
NUMBER_OF_BYTES : 608448000
_STATISTICS_WRITING_APP : mkvmerge v8.3.0 ('Over the Horizon') 64bit
_STATISTICS_WRITING_DATE_UTC : 2015-10-25 16:08:37
_STATISTICS_TAGS : BPS DURATION NUMBER_OF_FRAMES NUMBER_OF_BYTES

Video
ID : 1
Format : VC-1
Format profile : [email protected]
Codec ID : V_MS/VFW/FOURCC / WVC1
Codec ID/Hint : Microsoft
Duration : 2h 6mn
Width : 1 920 pixels
Height : 1 080 pixels
Display aspect ratio : 16:9
Frame rate mode : Constant
Frame rate : 23.976 fps
Color space : YUV
Chroma subsampling : 4:2:0
Bit depth : 8 bits
Scan type : Progressive
Compression mode : Lossy
Title : Deja Vu [2006] 'ReMux ©
Language : English
Default : Yes
Forced : No

Audio #1
ID : 2
Format : AC-3
Format/Info : Audio Coding 3
Mode extension : CM (complete main)
Format settings, Endianness : Big
Codec ID : A_AC3
Duration : 2h 6mn
Bit rate mode : Constant
Bit rate : 320 Kbps
Channel(s) : 2 channels
Channel positions : Front: L R
Sampling rate : 48.0 KHz
Compression mode : Lossy
Stream size : 290 MiB (1%)
Title : Dolby Digital | 2.0 | 48 kHz | 16 bit | 320 kbps | Дубляж [Blu-ray CEE / НеваФільм Україна]
Language : Ukrainian
Default : No
Forced : No

Audio #2
ID : 3
Format : AC-3
Format/Info : Audio Coding 3
Mode extension : CM (complete main)
Format settings, Endianness : Big
Codec ID : A_AC3
Duration : 2h 6mn
Bit rate mode : Constant
Bit rate : 640 Kbps
Channel(s) : 6 channels
Channel positions : Front: L C R, Side: L R, LFE
Sampling rate : 48.0 KHz
Compression mode : Lossy
Delay relative to video : -42ms
Stream size : 580 MiB (2%)
Title : Dolby Digital | 5.1 | 48 kHz | 16 bit | 640 kbps | Original
Language : English
Default : No
Forced : No

Audio #3
ID : 4
Format :
Format/Info : Digital Theater Systems
Format profile : MA / Core
Mode : 16
Format settings, Endianness : Big
Codec ID : A_DTS
Duration : 2h 6mn
Bit rate mode : Variable
Bit rate : Unknown / 1 509 Kbps
Channel(s) : 6 channels
Channel positions : Front: L C R, Side: L R, LFE
Sampling rate : 48.0 KHz
Bit depth : 16 bits
Compression mode : Lossless / Lossy
Title : -HD Ma | 5.1 | 48 kHz | 16 bit | 2230 kbps | Original
Language : English
Default : No
Forced : No

Audio #4
ID : 5
Format : AC-3
Format/Info : Audio Coding 3
Mode extension : CM (complete main)
Format settings, Endianness : Big
Codec ID : A_AC3
Duration : 2h 6mn
Bit rate mode : Constant
Bit rate : 192 Kbps
Channel(s) : 2 channels
Channel positions : Front: L R
Sampling rate : 48.0 KHz
Compression mode : Lossy
Delay relative to video : -42ms
Stream size : 174 MiB (1%)
Title : Dolby Digital | 2.0 | 48 kHz | 16 bit | 192 kbps | Commentary [T. Scott, J. Bruckheimer and B. Marsilii]
Language : English
Default : No
Forced : No

Text #1
ID : 6
Format : UTF-8
Codec ID : S_TEXT/UTF8
Codec ID/Info : UTF-8 Plain Text
Title : Full
Language : Ukrainian
Default : No
Forced : No

Text #2
ID : 7
Format : UTF-8
Codec ID : S_TEXT/UTF8
Codec ID/Info : UTF-8 Plain Text
Title : Full
Language : English
Default : No
Forced : No

Menu
00:00:00.000 : en:Act of Terrorism
00:06:20.755 : en:A Crime Investigation
00:15:32.681 : en:Claire Kachever
00:24:59.206 : en:Unique Time Constraints
00:30:20.235 : en:Snow White
00:38:37.356 : en:Who's Watching Her?
00:42:57.992 : en:That's Him
00:49:30.384 : en:Something Breached the Field
00:55:52.390 : en:Branching the Universe
00:59:57.385 : en:Out of Range
01:14:15.617 : en:Motive
01:20:37.999 : en:Four Days Ago
01:29:00.418 : en:They'd Never Believe You
01:42:49.371 : en:Change of Plans
01:54:41.416 : en:Have We Met?
01:58:06.621 : en:End Credits
Скріншоти



Особиста оцінка: 10 - без зайвих вагань рекомендую всім!


Золотий реліз (завантажене не впливає на рейтинг)
 Трекер:    Зареєстрований   

Завантажити / скачати фільм українською



відео для новачків



 Зареєстрований:   2015-10-25 20:00
 Розмір:   23.46 GB 
 Оцінка фільму:   9.6/10 (Голосів: 8)
   
Інші релізи
   Дежа Вю / Deja vu (2006) AVC Drool  1 / 0   2.45 GB   2013-11-16 18:09 
   Дежа Вю / Deja vu (2006) 720p Ukr/Eng|Sub Ukr/Eng SuperContik  7 / 0   6.76 GB   2011-02-12 17:27 
   Дежа Вю / Deja vu (2006) LIONN  5 / 0   2.18 GB   2009-12-25 16:04 
polyoviy7 
Відео Гуртом - підтримка та поширення
Відео Гуртом - підтримка та поширення


З нами з: 16.12.13
Востаннє: 06.12.16
Повідомлень: 86

2015-10-25 20:11  
класний фільм, шкода що дивився його у поганій якості..
bot 
робот


З нами з: 30.09.07
Востаннє: 26.05.05
Повідомлень: 16003

2016-07-24 22:09  
Тему перенесено з Фільми в HD до форуму Фінальний смітник


Alex60

bot 
робот


З нами з: 30.09.07
Востаннє: 26.05.05
Повідомлень: 16003

2016-07-25 13:18  
Тему перенесено з Фінальний смітник до форуму Фільми в HD


igor911

Ваш часовий пояс: GMT + 2 Години

Нова тема   Відповісти