Завантажити та скачати торренти українською


Хлопець-невидимець / Il ragazzo invisibile (2014) Ukr/Ita

Нові коментарі

Нова тема   Відповісти
Автор Повідомлення
1101 
Свій


З нами з: 09.07.12
Востаннє: 24.11.16
Повідомлень: 62

2015-10-22 18:00  
Хлопець-невидимець / Il ragazzo invisibile (2014) Ukr/Ita

Хлопець-невидимець / Il ragazzo invisibile (2014) Ukr/Ita


Жанр: сімейний, пригоди, фантастика
Країна: Італія



Кінокомпанія: Indigo Film, Rai Cinema, Babe Film
Режисер: Габріеле Сальваторес / Gabriele Salvatores
Актори: Людовіко Джирарделло, Валерія Голіно, Фабріціо Бентивольо, Христо Живков, Ноа Затта, Філіппо Валезе, Енеа Бароцці, Ассіль Канділь, Ріккардо Гаспаріні, Вернон Добчефф, Ксенія Раппопорт та інші.

Сюжет:
Мікеле - тринадцятирічний підліток, який мешкає разом зі своєю мамою та молодшою сестрою в невеликому містечку на березі моря. На жаль, наш герой – не дуже популярна особистість в школі та часто стає об’єктом знущань з боку однокласників. Мікеле хоче, щоб на нього звернула увагу його однокласниця Стелла, однак для неї він просто не існує. Але наступного дня, після того як Мікеле сходив на вечірку в Хеллоуїн в дивному костюмі, наш герой виявляє, що може ставати невидимим.


Тривалість: 01:37:15
Якість:
Відео:
кодек:
розмір кадру: 720 х 304
бітрейт: 918 кб/с

Аудіо # 1:
мова: українська
переклад: одноголосий закадровий Зразок https://www.sendspace.com/file/384cts
кодек: MP3
бітрейт: 192 кб/с

Аудіо # 2:
мова: італійська
переклад: оригінал
кодек: 5.1
бітрейт: 384 кб/с

Джерело озвучення:


Український трейлер
Скріншоти




Медіа інфо

Format : Matroska
Format version : Version 2
File size : 1.04 GiB
Duration : 1h 37mn
Overall bit rate : 1 524 Kbps
Encoded date : UTC 2015-10-09 17:47:19
Writing application : mkvmerge v5.0.0 ('Die Wahre Liebe') built on Sep 25 2011 20:33:49
Writing library : libebml v1.2.2 + libmatroska v1.3.0

Video
ID : 1
Format : MPEG-4 Visual
Format profile : Advanced [email protected]
Format settings, BVOP : Yes
Format settings, QPel : No
Format settings, GMC : No warppoints
Format settings, Matrix : Default (MPEG)
Codec ID :
Codec ID/Hint :
Duration : 1h 37mn
Bit rate : 918 Kbps
Width : 720 pixels
Height : 304 pixels
Display aspect ratio : 2.35:1
Frame rate : 25.000 fps
Color space : YUV
Chroma subsampling : 4:2:0
Bit depth : 8 bits
Scan type : Progressive
Compression mode : Lossy
Bits/(Pixel*Frame) : 0.168
Stream size : 638 MiB (60%)
Writing library : 64
Default : Yes
Forced : No

Audio #1
ID : 2
Format : AC-3
Format/Info : Audio Coding 3
Mode extension : CM (complete main)
Codec ID : A_AC3
Duration : 1h 37mn
Bit rate mode : Constant
Bit rate : 384 Kbps
Channel(s) : 6 channels
Channel positions : Front: L C R, Side: L R, LFE
Sampling rate : 48.0 KHz
Bit depth : 16 bits
Compression mode : Lossy
Stream size : 267 MiB (25%)
Language : Italian
Default : No
Forced : No

Audio #2
ID : 3
Format : MPEG Audio
Format version : Version 1
Format profile : Layer 3
Mode : Joint stereo
Mode extension : MS Stereo
Codec ID : A_MPEG/L3
Codec ID/Hint : MP3
Duration : 1h 37mn
Bit rate mode : Constant
Bit rate : 192 Kbps
Channel(s) : 2 channels
Sampling rate : 44.1 KHz
Compression mode : Lossy
Stream size : 134 MiB (13%)
Language : Ukrainian
Default : Yes
Forced : Yes
Особиста оцінка: 10 - без зайвих вагань рекомендую всім!


Авторський реліз (завантажувати можна без реєстрації)
 Трекер:    Зареєстрований   

Завантажити / скачати фільм українською



відео для новачків



 Зареєстрований:   2015-10-22 18:00
 Розмір:   1.04 GB 
 Оцінка фільму:   9.6/10 (Голосів: 20)
   
wrongman 
Свій


З нами з: 11.11.08
Востаннє: 10.12.16
Повідомлень: 137

2015-10-22 21:36  
Чому контейнер MKV, а не AVI ?
1101 
Свій


З нами з: 09.07.12
Востаннє: 24.11.16
Повідомлень: 62

2015-10-23 13:17  
wrongman написано:
Чому контейнер MKV, а не AVI ?

Я не великий спец у технічних питаннях, тому працюю з тим контейнером, з яким простіше. Якщо кортить AVI, то витягніть звідси українську доріжку та припасуйте до оригінального AVI, яке є в Мережі.

Ergo Proxy 
Новенький


З нами з: 22.05.12
Востаннє: 09.12.16
Повідомлень: 21

2015-10-24 20:57  
і як воно?)
tarik1111111 
Свій


З нами з: 19.10.13
Востаннє: 10.12.16
Повідомлень: 117

2015-10-25 18:56  
а воно - огого
Ваш часовий пояс: GMT + 2 Години

Нова тема   Відповісти