Завантажити та скачати торренти українською


Ідеальне вбивство (Досконале вбивство) / A Perfect Murder (1998) 2xUkr/Eng | Sub Eng

Нові коментарі

Нова тема   Відповісти
Автор Повідомлення
Anonymous 







2015-10-22 13:23  
Ідеальне вбивство / Досконале вбивство / A Perfect Murder (1998) 2xUkr/Eng | Sub Eng



Альтернативні обкладинки та постери






повнорозмірні зображення відкриються по кліку (з натиснутим CTRL чи кліком середньою кнопкою мишки - у новій вкладці)


Жанр: трилер, драма, кримінальний
Країна: США



Кінокомпанія: Warner Bros., Kopelson Entertainment
Режисер: Ендрю Девіс / Andrew Davis
Актори: Майкл Даґлес / Michael Douglas, Ґвінет Пелтроу / Gwyneth Paltrow, Віґо Мортенсен / Viggo Mortensen, Девід Суше / David Suchet, Саріта Чоудрі / Sarita Choudhury, Майкл П. Моран / Michael P. Moran, Новела Нельсон / Novella Nelson, Констанс Тауерс / Constance Towers, Вілл Ліман / Will Lyman, Мейв МакҐвайр / Maeve McGuire, Стівен Сінгер / Stephen Singer та інші

Сюжет:
Бізнесмен-фінансист Стівен Тейлор (Майкл Даґлес) опинившись на межі банкрутсва, дізнається, що його дуже багата дружина Емілі (Ґвінет Пелтроу) зраджує йому з художником Девідом (Віґо Мортенсен). Якимось чином Стівен дізнається, що Девід зовсім не художник, а шлюбний аферист з солідним "послужним" списком та кількома "ходками" до в'язниці. Зустрівшись з Девідом, Стівен пропонує йому півмільйона доларів за вбивство власної дружини…
Вдалий рімейк кінокласики Альфреда Хічкока "У випадку вбивства телефонуйте "М" (Dial M for Murder, 1954)


Рейтинг MPAA: R - особам до 17 років обов'язкова присутність батьків або дорослого опікуна
Вікова категорія: 16+

Тривалість: 01:47:26
Якість:
Відео:
кодек:
розмір кадру: 720 х 400
бітрейт: 1924 кбіт/с

Аудіо # 1:
мова: українська
переклад: багатоголосий закадровий - Так Треба Продакшн
ролі озвучили: Майкл Даґлес — Владислав Пупков, Віґо Мортенсен — Олесь Гімбаржевський і Людмила Ардельян
кодек: 5.1
бітрейт: 448 кбіт/с

Аудіо # 2:
мова: українська
переклад: багатоголосий закадровий - Студія "ТВ+" на замовлення ICTV
ролі озвучили: Майкл Даґлес — Олесь Гімбаржевський, Віґо Мортенсен — Юрій Кудрявець і Людмила Ардельян
кодек: 2.0 (стерео)
бітрейт: 192 кбіт/с
примітка: з нового запису POMEO 22.02.2015 (SAT)

Аудіо # 3:
мова: англійська
переклад: оригінал
кодек: 5.1
бітрейт: 384 кбіт/с

Субтитри:
мова: англійська (завантажити - повні, SDH)
тип: програмні (м'які)
формат: *.srt
MediaInfo
Код:
General
Complete name               : A Perfect Murder (1998) [2xUkr,Eng] [Hurtom & HQClub].avi
Format                      : AVI
Format/Info                 : Audio Video Interleave
Format profile              : OpenDML
File size                   : 2.23 GiB
Duration                    : 1h 47mn
Overall bit rate            : 2 972 Kbps
Movie name                  : Ідеальне вбивство / Досконале вбивство / A Perfect Murder (1998)
Director                    : igor911 & kingsize87
Writing application         : VirtualDubModRus 1.5.10.2 (build 2540/release)
Writing library             : VirtualDubMod build 2540/release
Copyright                   : Hurtom & HQClub
Comment                     : 22.10.2015

Video
ID                          : 0
Format                      : MPEG-4 Visual
Format profile              : Advanced [email protected]
Format settings, BVOP       : 1
Format settings, QPel       : No
Format settings, GMC        : No warppoints
Format settings, Matrix     : Custom
Codec ID                    :
Codec ID/Hint               :
Duration                    : 1h 47mn
Bit rate                    : 1 924 Kbps
Width                       : 720 pixels
Height                      : 400 pixels
Display aspect ratio        : 16:9
Frame rate                  : 23.976 fps
Color space                 : YUV
Chroma subsampling          : 4:2:0
Bit depth                   : 8 bits
Scan type                   : Progressive
Compression mode            : Lossy
Bits/(Pixel*Frame)          : 0.279
Stream size                 : 1.44 GiB (65%)
Writing library             : 65

Audio #1
ID                          : 1
Format                      : AC-3
Format/Info                 : Audio Coding 3
Mode extension              : CM (complete main)
Format settings, Endianness : Big
Codec ID                    : 2000
Duration                    : 1h 47mn
Bit rate mode               : Constant
Bit rate                    : 448 Kbps
Channel(s)                  : 6 channels
Channel positions           : Front: L C R, Side: L R, LFE
Sampling rate               : 48.0 KHz
Compression mode            : Lossy
Stream size                 : 344 MiB (15%)
Alignment                   : Split accross interleaves
Interleave, duration        : 42 ms (1.00 video frame)
Interleave, preload duratio : 500 ms
Title                       : Ukr TTP

Audio #2
ID                          : 2
Format                      : AC-3
Format/Info                 : Audio Coding 3
Mode extension              : CM (complete main)
Format settings, Endianness : Big
Codec ID                    : 2000
Duration                    : 1h 47mn
Bit rate mode               : Constant
Bit rate                    : 192 Kbps
Channel(s)                  : 2 channels
Channel positions           : Front: L R
Sampling rate               : 48.0 KHz
Compression mode            : Lossy
Stream size                 : 148 MiB (6%)
Alignment                   : Split accross interleaves
Interleave, duration        : 42 ms (1.00 video frame)
Interleave, preload duratio : 500 ms
Title                       : Ukr TV+ ICTV

Audio #3
ID                          : 3
Format                      : AC-3
Format/Info                 : Audio Coding 3
Mode extension              : CM (complete main)
Format settings, Endianness : Big
Codec ID                    : 2000
Duration                    : 1h 47mn
Bit rate mode               : Constant
Bit rate                    : 384 Kbps
Channel(s)                  : 6 channels
Channel positions           : Front: L C R, Side: L R, LFE
Sampling rate               : 48.0 KHz
Compression mode            : Lossy
Stream size                 : 295 MiB (13%)
Alignment                   : Split accross interleaves
Interleave, duration        : 42 ms (1.00 video frame)
Interleave, preload duratio : 500 ms
Title                       : Eng




Джерела та подяки: &
ріп відео - kingsize87 (HQClub); українські доріжки - 1) Romario_O, madoff (HDClub); 2) igor911 - зведення, POMEO - запис з ТБ; українізовані постери - DemsOFF, Boravl; фільмографії акторів та інформація про озвучення - Віктор, Neo777 (всі - Гуртом).





ЗАЛИШАЙТЕСЬ ЯКОМОГА ДОВШЕ НА РОЗДАЧІ!

СКАЧАВ САМ - ДАЙ СКАЧАТИ ІНШИМ


Срібний реліз (на рейтинг впливає 50% завантаженого)
 Трекер:    Зареєстрований   

Завантажити / скачати фільм українською



відео для новачків



 Зареєстрований:   2015-10-22 13:23
 Розмір:   2.23 GB 
 Оцінка фільму:   6.1/10 (Голосів: 27)
   
robotron005 
Відео Гуртом - фільмокрай
Відео Гуртом - фільмокрай


З нами з: 29.01.09
Востаннє: 08.12.16
Повідомлень: 2988

2015-10-23 20:01  
Скріншоти криві, з чорною смужкою - 720px × 440px
Anonymous 







2015-10-23 20:08  
robotron005, дійсно, щось глюканув КМПлеєр...
Anonymous 







2015-10-26 14:16  
замінив скріншоти
boroznaya 
VIP


З нами з: 02.11.12
Востаннє: 08.12.16
Повідомлень: 1876

2016-08-14 06:47  
Обожнюю гра Дуґласа, адже він майстер своєї справи. Рекомендую!
Ваш часовий пояс: GMT + 2 Години

Нова тема   Відповісти