Завантажити та скачати торренти українською


Ідеальне вбивство (Досконале вбивство) / A Perfect Murder (1998) 1080p 2xUkr/Eng | Sub Eng

Нові коментарі

Нова тема   Відповісти
Автор Повідомлення
Anonymous 







2015-10-22 13:23  
Ідеальне вбивство / Досконале вбивство / A Perfect Murder (1998) 1080p 2xUkr/Eng | Sub Eng



Альтернативні обкладинки та постери






повнорозмірні зображення відкриються по кліку (з натиснутим CTRL чи кліком середньою кнопкою мишки - у новій вкладці)


Жанр: трилер, драма, кримінальний
Країна: США



Кінокомпанія: Warner Bros., Kopelson Entertainment
Режисер: Ендрю Девіс / Andrew Davis
Актори: Майкл Даґлес / Michael Douglas, Ґвінет Пелтроу / Gwyneth Paltrow, Віґо Мортенсен / Viggo Mortensen, Девід Суше / David Suchet, Саріта Чоудрі / Sarita Choudhury, Майкл П. Моран / Michael P. Moran, Новела Нельсон / Novella Nelson, Констанс Тауерс / Constance Towers, Вілл Ліман / Will Lyman, Мейв МакҐвайр / Maeve McGuire, Стівен Сінгер / Stephen Singer та інші

Сюжет:
Бізнесмен-фінансист Стівен Тейлор (Майкл Даґлес) опинившись на межі банкрутсва, дізнається, що його дуже багата дружина Емілі (Ґвінет Пелтроу) зраджує йому з художником Девідом (Віґо Мортенсен). Якимось чином Стівен дізнається, що Девід зовсім не художник, а шлюбний аферист з солідним "послужним" списком та кількома "ходками" до в'язниці. Зустрівшись з Девідом, Стівен пропонує йому півмільйона доларів за вбивство власної дружини…
Вдалий рімейк кінокласики Альфреда Хічкока "У випадку вбивства телефонуйте "М" (Dial M for Murder, 1954)


Рейтинг MPAA: R - особам до 17 років обов'язкова присутність батьків або дорослого опікуна
Вікова категорія: 16+

Тривалість: 01:47:26
Якість: 1080p [CRiSC]
Відео:
кодек:
розмір кадру: 1920 х 1080
бітрейт: 13350 кбіт/с

Аудіо # 1:
мова: українська
переклад: багатоголосий закадровий - Так Треба Продакшн
ролі озвучили: Майкл Даґлес — Владислав Пупков, Віґо Мортенсен — Олесь Гімбаржевський і Людмила Ардельян
кодек: 5.1
бітрейт: 448 кбіт/с

Аудіо # 2:
мова: українська
переклад: багатоголосий закадровий - Студія "ТВ+" на замовлення ICTV
ролі озвучили: Майкл Даґлес — Олесь Гімбаржевський, Віґо Мортенсен — Юрій Кудрявець і Людмила Ардельян
кодек: 2.0 (стерео)
бітрейт: 192 кбіт/с
примітка: з нового запису POMEO 22.02.2015 (SAT)

Аудіо # 3:
мова: українська
переклад: багатоголосий закадровий - Студія "ТВ+" на замовлення ICTV
ролі озвучили: Майкл Даґлес — Олесь Гімбаржевський, Віґо Мортенсен — Юрій Кудрявець і Людмила Ардельян
кодек: 5.1
бітрейт: 448 кбіт/с
примітка: озвучка, ідентична попередній, очевидно перероблений HDClub'ом звук з старого релізу Romario_O (2010)

Аудіо # 4:
мова: англійська
переклад: оригінал
кодек: 5.1
бітрейт: 1509 кбіт/с

Аудіо # 5:
мова: англійська
переклад: коментарі режисера Ендрю Девіса, сценариста Патріка Келлі та актора Майкла Даґлеса
кодек: 2.0
бітрейт: 192 кбіт/с

Субтитри # 1-2:
мова: англійська (повні, SDH)
тип: програмні (м'які)
формат: *.srt

Збережено оригінальні розділи, як на Blu-ray.
MediaInfo
Код:
General
Unique ID                   : 218569559320614016483884423061429039495 (0xA46EF746B5EED251BBF5C8D749503187)
Complete name               : A Perfect Murder (1998) [2xUkr,Eng sub.Eng] 1080p [Hurtom].mkv
Format                      : Matroska
Format version              : Version 4 / Version 2
File size                   : 12.1 GiB
Duration                    : 1h 47mn
Overall bit rate            : 16.1 Mbps
Movie name                  : Ідеальне вбивство / Досконале вбивство / A Perfect Murder (1998) [2xUkr,Eng sub.Eng] 1080p [Hurtom-igor911]
Encoded date                : UTC 2015-10-21 18:01:01
Writing application         : mkvmerge v8.5.1 ('Where you lead I will follow') 64bit
Writing library             : libebml v1.3.3 + libmatroska v1.4.4
Attachements                : cover.jpg
DURATION                    : 01:41:47.725000000
NUMBER_OF_FRAMES            : 984
NUMBER_OF_BYTES             : 31681
_STATISTICS_WRITING_APP     : mkvmerge v8.5.1 ('Where you lead I will follow') 64bit
_STATISTICS_WRITING_DATE_UT : 2015-10-21 18:01:01
_STATISTICS_TAGS            : BPS DURATION NUMBER_OF_FRAMES NUMBER_OF_BYTES

Video
ID                          : 1
Format                      : AVC
Format/Info                 : Advanced Video Codec
Format profile              : [email protected]
Format settings, CABAC      : Yes
Format settings, ReFrames   : 4 frames
Codec ID                    : V_MPEG4/ISO/AVC
Duration                    : 1h 47mn
Bit rate                    : 13.4 Mbps
Width                       : 1 920 pixels
Height                      : 1 080 pixels
Display aspect ratio        : 16:9
Frame rate mode             : Constant
Frame rate                  : 23.976 fps
Color space                 : YUV
Chroma subsampling          : 4:2:0
Bit depth                   : 8 bits
Scan type                   : Progressive
Bits/(Pixel*Frame)          : 0.269
Stream size                 : 9.77 GiB (81%)
Title                       : Ідеальне вбивство / Досконале вбивство / Идеальное убийство / A Perfect Murder (1998) 1080p [CRiSC]
Writing library             : core 125 r2200 999b753
Encoding settings           : cabac=1 / ref=4 / deblock=1:-3:-3 / analyse=0x3:0x133 / me=umh / subme=11 / psy=1 / psy_rd=1.05:0.00 / mixed_ref=1 / me_range=48 / chroma_me=1 / trellis=2 / 8x8dct=1 / cqm=0 / deadzone=21,11 / fast_pskip=0 / chroma_qp_offset=-2 / threads=12 / lookahead_threads=2 / sliced_threads=0 / nr=0 / decimate=1 / interlaced=0 / bluray_compat=0 / constrained_intra=0 / bframes=9 / b_pyramid=2 / b_adapt=2 / b_bias=0 / direct=3 / weightb=1 / open_gop=0 / weightp=2 / keyint=250 / keyint_min=23 / scenecut=40 / intra_refresh=0 / rc_lookahead=40 / rc=2pass / mbtree=0 / bitrate=13350 / ratetol=1.0 / qcomp=0.60 / qpmin=0 / qpmax=69 / qpstep=4 / cplxblur=20.0 / qblur=0.5 / vbv_maxrate=62500 / vbv_bufsize=78125 / nal_hrd=none / ip_ratio=1.40 / pb_ratio=1.30 / aq=1:0.80
Language                    : English
Default                     : Yes
Forced                      : No
DURATION                    : 01:47:26.482000000
NUMBER_OF_FRAMES            : 154561
NUMBER_OF_BYTES             : 10749890969
_STATISTICS_WRITING_APP     : mkvmerge v8.5.1 ('Where you lead I will follow') 64bit
_STATISTICS_WRITING_DATE_UT : 2015-10-21 18:01:01
_STATISTICS_TAGS            : BPS DURATION NUMBER_OF_FRAMES NUMBER_OF_BYTES

Audio #1
ID                          : 2
Format                      : AC-3
Format/Info                 : Audio Coding 3
Mode extension              : CM (complete main)
Format settings, Endianness : Big
Codec ID                    : A_AC3
Duration                    : 1h 47mn
Bit rate mode               : Constant
Bit rate                    : 448 Kbps
Channel(s)                  : 6 channels
Channel positions           : Front: L C R, Side: L R, LFE
Sampling rate               : 48.0 KHz
Compression mode            : Lossy
Stream size                 : 344 MiB (3%)
Title                       : MVO [TTP] 5.1 448 kbps [Hurtom-Romario_O,HDClub-madoff]
Language                    : Ukrainian
Default                     : Yes
Forced                      : No

Audio #2
ID                          : 3
Format                      : AC-3
Format/Info                 : Audio Coding 3
Mode extension              : CM (complete main)
Format settings, Endianness : Big
Codec ID                    : A_AC3
Duration                    : 1h 47mn
Bit rate mode               : Constant
Bit rate                    : 192 Kbps
Channel(s)                  : 2 channels
Channel positions           : Front: L R
Sampling rate               : 48.0 KHz
Compression mode            : Lossy
Stream size                 : 148 MiB (1%)
Title                       : MVO [TV+,ICTV sat 2015] 2.0 192 kbps [Hurtom-igor911,POMEO]
Language                    : Ukrainian
Default                     : No
Forced                      : No

Audio #3
ID                          : 4
Format                      : AC-3
Format/Info                 : Audio Coding 3
Mode extension              : CM (complete main)
Format settings, Endianness : Big
Codec ID                    : A_AC3
Duration                    : 1h 47mn
Bit rate mode               : Constant
Bit rate                    : 448 Kbps
Channel(s)                  : 6 channels
Channel positions           : Front: L C R, Side: L R, LFE
Sampling rate               : 48.0 KHz
Compression mode            : Lossy
Stream size                 : 344 MiB (3%)
Title                       : MVO [TV+,ICTV] 5.1 448 kbps [Hurtom-Romario_O,MechanicCDRR,HDClub-madoff]
Language                    : Ukrainian
Default                     : No
Forced                      : No

Audio #4
ID                          : 5
Format                      :
Format/Info                 : Digital Theater Systems
Mode                        : 16
Format settings, Endianness : Big
Codec ID                    : A_DTS
Duration                    : 1h 47mn
Bit rate mode               : Constant
Bit rate                    : 1 509 Kbps
Channel(s)                  : 6 channels
Channel positions           : Front: L C R, Side: L R, LFE
Sampling rate               : 48.0 KHz
Bit depth                   : 24 bits
Compression mode            : Lossy
Stream size                 : 1.13 GiB (9%)
Title                       : Original, 5.1 1509 kbps
Language                    : English
Default                     : No
Forced                      : No

Audio #5
ID                          : 6
Format                      : AC-3
Format/Info                 : Audio Coding 3
Format profile              : Dolby Digital
Mode extension              : CM (complete main)
Format settings, Endianness : Big
Codec ID                    : A_AC3
Duration                    : 1h 47mn
Bit rate mode               : Constant
Bit rate                    : 192 Kbps
Channel(s)                  : 2 channels
Channel positions           : Front: L R
Sampling rate               : 48.0 KHz
Compression mode            : Lossy
Stream size                 : 148 MiB (1%)
Title                       : Commentary A.Davis, P.Kelly, M.Douglas, 2.0 192 kbps
Language                    : English
Default                     : No
Forced                      : No

Text #1
ID                          : 7
Format                      : UTF-8
Codec ID                    : S_TEXT/UTF8
Codec ID/Info               : UTF-8 Plain Text
Title                       : Eng full
Language                    : English
Default                     : No
Forced                      : No

Text #2
ID                          : 8
Format                      : UTF-8
Codec ID                    : S_TEXT/UTF8
Codec ID/Info               : UTF-8 Plain Text
Title                       : Eng SDH
Language                    : English
Default                     : No
Forced                      : No

Menu
00:00:00.000                : en:00:00:00.000
00:02:14.009                : en:00:02:14.009
00:08:09.864                : en:00:08:09.864
00:10:53.820                : en:00:10:53.820
00:13:18.339                : en:00:13:18.339
00:19:59.657                : en:00:19:59.657
00:22:32.226                : en:00:22:32.226
00:27:28.897                : en:00:27:28.897
00:32:49.676                : en:00:32:49.676
00:37:12.480                : en:00:37:12.480
00:39:03.007                : en:00:39:03.007
00:41:31.823                : en:00:41:31.823
00:45:06.078                : en:00:45:06.078
00:48:25.903                : en:00:48:25.903
00:51:29.086                : en:00:51:29.086
00:55:51.139                : en:00:55:51.139
00:58:50.944                : en:00:58:50.944
01:03:31.266                : en:01:03:31.266
01:06:28.818                : en:01:06:28.818
01:09:44.389                : en:01:09:44.389
01:10:55.501                : en:01:10:55.501
01:14:41.227                : en:01:14:41.227
01:18:36.503                : en:01:18:36.503
01:22:09.424                : en:01:22:09.424
01:28:31.473                : en:01:28:31.473
01:31:09.339                : en:01:31:09.339
01:35:01.696                : en:01:35:01.696
01:38:56.097                : en:01:38:56.097
01:40:49.043                : en:01:40:49.043
01:42:20.301                : en:01:42:20.301
01:43:22.696                : en:01:43:22.696
01:44:29.013                : en:01:44:29.013
Оригінал <----------> Ріп








Джерела та подяки: &
ріп відео - CRiSC (HDbits); українські доріжки - 1) Romario_O, madoff (HDClub); 2) igor911 - зведення, POMEO - запис з ТБ; 3) Romario_O, MechanicCDRR, madoff (HDClub); українізовані постери - DemsOFF, Boravl; фільмографії акторів та інформація про озвучення - Віктор, Neo777 (всі - Гуртом).





ЗАЛИШАЙТЕСЬ ЯКОМОГА ДОВШЕ НА РОЗДАЧІ!

СКАЧАВ САМ - ДАЙ СКАЧАТИ ІНШИМ


Срібний реліз (на рейтинг впливає 50% завантаженого)
 Трекер:    Зареєстрований   

Завантажити / скачати фільм українською



відео для новачків



 Зареєстрований:   2015-10-22 13:23
 Розмір:   12.11 GB 
 Оцінка фільму:   2.5/10 (Голосів: 12)
   
Ваш часовий пояс: GMT + 2 Години

Нова тема   Відповісти