Завантажити та скачати торренти українською


Пікселі / Pixels (2015) 720p-mini

Нові коментарі

Нова тема   Відповісти
Автор Повідомлення
Drool 
VIP


З нами з: 17.04.10
Востаннє: 02.12.16
Повідомлень: 1262

2015-10-20 09:53  
Пікселі / Pixels (2015) 720p-mini

Жанр: екшн, комедія, фантастика
Країна: США, Канада, Китай



Кінокомпанія: 1492 Pictures, China Film Co., Columbia Pictures
Режисер: Кріс Коламбус
Актори: Адам Сендлер, Кевін Джеймс, Мішель Монаґан, Пітер Дінклейдж, Джош Ґад, Брайан Кокс, Ешлі Бенсон, Шон Бін, Джейн Краковскі, Роб Арчер, Томас МакКарті, Денніс Акаяма та інші

Сюжет:
Прибульці з космосу помилково трактують тематику комп'ютерних ігор як оголошення їм війни і атакують Землю, використовуючи відеоігри 80-х в якості моделей для різноманітних стратегій вторгнення. Президент країни звертається за допомогою до друга дитинства, чемпіона тих років по грі в автомати Сема Бреннера. Той збирає команду гравців, фахівців з відеоігор, щоб спільно здолати прибульців і врятувати планету...


Тривалість: 01:45:49
Якість: 720p-mini
Відео:
кодек:
розмір кадру: 1280 х 534
бітрейт: 2603 кб/с

Аудіо:
мова: українська
переклад: професійний дубльований
кодек: 5.1
бітрейт: 448 кб/с
MediaInfo
General
Unique ID : 272956029166748636460645756317852093412 (0xCD596B44107139ADE8E40E0B1A39CBE4)
Complete name : /mnt/disk_d/Video/Pixels.2015.Ukr.Dub..720p-mini.UAGet.mkv
Format : Matroska
Format version : Version 4 / Version 2
File size : 2.26 GiB
Duration : 1h 45mn
Overall bit rate : 3 051 Kbps
Movie name : Pixels.2015...AVC.Rus.Ukr.Eng
Encoded date : UTC 2015-11-30 14:45:38
Writing application : mkvmerge v8.5.0 ('Vanishing Act') 64bit
Writing library : libebml v1.3.1 + libmatroska v1.4.2
TITLE : Пікселі / Pixels (2015) 720p-mini -=UAGet=-
ARTIST : Адам Сендлер, Кевін Джеймс, Мішель Монаґан, Пітер Дінклейдж, Джош Ґад та інші
DIRECTOR : Кріс Коламбус
DATE_RELEASED : 2015
GENRE : екшн, комедія, фантастика
SYNOPSIS : Прибульці з космосу помилково трактують тематику комп'ютерних ігор як оголошення їм війни і атакують Землю, використовуючи відеоігри 80-х в якості моделей для різноманітних стратегій вторгнення. Президент країни звертається за допомогою до друга дитинства, чемпіона тих років по грі в автомати Сема Бреннера. Той збирає команду гравців, фахівців з відеоігор, щоб спільно здолати прибульців і врятувати планету...
DURATION : 01:45:49.344000000
NUMBER_OF_FRAMES : 198417
NUMBER_OF_BYTES : 355563264
_STATISTICS_WRITING_APP : mkvmerge v8.5.0 ('Vanishing Act') 64bit
_STATISTICS_WRITING_DATE_UTC : 2015-11-30 14:45:38
_STATISTICS_TAGS : BPS DURATION NUMBER_OF_FRAMES NUMBER_OF_BYTES

Video
ID : 1
Format : AVC
Format/Info : Advanced Video Codec
Format profile : [email protected]
Format settings, CABAC : Yes
Format settings, ReFrames : 11 frames
Codec ID : V_MPEG4/ISO/AVC
Duration : 1h 45mn
Bit rate : 2 603 Kbps
Width : 1 280 pixels
Height : 534 pixels
Display aspect ratio : 2.40:1
Frame rate mode : Constant
Frame rate : 23.976 fps
Color space : YUV
Chroma subsampling : 4:2:0
Bit depth : 8 bits
Scan type : Progressive
Bits/(Pixel*Frame) : 0.159
Stream size : 1.88 GiB (83%)
Writing library : core 142 r2389 956c8d8
Encoding settings : cabac=1 / ref=12 / deblock=1:-3:-3 / analyse=0x3:0x133 / me=umh / subme=11 / psy=1 / psy_rd=1,10:0,15 / mixed_ref=1 / me_range=64 / chroma_me=1 / trellis=2 / 8x8dct=1 / cqm=0 / deadzone=21,11 / fast_pskip=0 / chroma_qp_offset=-3 / threads=6 / lookahead_threads=1 / sliced_threads=0 / nr=0 / decimate=1 / interlaced=0 / bluray_compat=0 / constrained_intra=0 / bframes=12 / b_pyramid=1 / b_adapt=2 / b_bias=0 / direct=3 / weightb=1 / open_gop=0 / weightp=2 / keyint=240 / keyint_min=24 / scenecut=40 / intra_refresh=0 / rc=2pass / mbtree=0 / bitrate=2603 / ratetol=1,0 / qcomp=1,00 / qpmin=0 / qpmax=69 / qpstep=4 / cplxblur=20,0 / qblur=0,5 / ip_ratio=1,40 / pb_ratio=1,30 / aq=2:0,60
Default : Yes
Forced : Yes
Color range : Limited
Color primaries : BT.709
Transfer characteristics : BT.709
Matrix coefficients : BT.709

Audio
ID : 2
Format : AC-3
Format/Info : Audio Coding 3
Mode extension : CM (complete main)
Format settings, Endianness : Big
Codec ID : A_AC3
Duration : 1h 45mn
Bit rate mode : Constant
Bit rate : 448 Kbps
Channel(s) : 6 channels
Channel positions : Front: L C R, Side: L R, LFE
Sampling rate : 48.0 KHz
Compression mode : Lossy
Stream size : 339 MiB (15%)
Title : Кінотеатральний дубляж
Language : Ukrainian
Default : Yes
Forced : Yes
Скріншоти






Реліз від:
Особиста оцінка: 8 - мені сподобалося


 Трекер:    Зареєстрований   

Завантажити / скачати фільм українською



відео для новачків



 Зареєстрований:   2015-11-30 16:53
 Розмір:   2.26 GB 
 Оцінка фільму:   8.4/10 (Голосів: 17)
   
Інші релізи
   Пікселі / Pixels (2015) 1080p 3D Ukr/Eng | Sub Ukr/Eng [HalfOverUnder] -VipeR-  1 / 0   7.38 GB   2016-01-05 13:22 
   Пікселі / Pixels (2015) AngryBirdsUA  3 / 1   1.46 GB   2015-11-22 11:27 
   Пікселі / Pixels (2015) Ukr/Eng | Sub Ukr/Eng НТН  1 / 0   2.18 GB   2015-11-17 23:37 
   Пікселі / Pixels (2015) Remux 1080p Ukr/Eng | Sub Ukr/Eng Alex60  3 / 0   24.71 GB   2015-10-24 16:45 
   Пікселі / Pixels (2015) AVC Ukr | Sub Ukr/Eng patriot2305  6 / 0   2.03 GB   2015-10-24 08:03 
   Пікселі / Pixels (2015) 1080p Ukr/Eng | Sub Ukr/Eng 11FrYkT  7 / 0   8.28 GB   2015-10-24 07:51 
   Пікселі / Pixels (2015) 720p Ukr/Eng | Sub Ukr/Eng 11FrYkT  0 / 0   4.21 GB   2015-10-24 07:49 
bot 
робот


З нами з: 30.09.07
Востаннє: 26.05.05
Повідомлень: 15968

2015-10-20 09:54  
Тему перенесено з Фільми в HD до форуму Анонси релізів


Drool

Drool 
VIP


З нами з: 17.04.10
Востаннє: 02.12.16
Повідомлень: 1262

2015-10-20 09:54  
Орієнтовний розмір - 2,1 гектари.
bot 
робот


З нами з: 30.09.07
Востаннє: 26.05.05
Повідомлень: 15968

2015-10-21 07:45  
Тему перенесено з Анонси релізів до форуму Фільми в HD


Drool

Drool 
VIP


З нами з: 17.04.10
Востаннє: 02.12.16
Повідомлень: 1262

2015-11-30 16:54  
Замінено звукову доріжку на ліцензію з BluRay!
Drool 
VIP


З нами з: 17.04.10
Востаннє: 02.12.16
Повідомлень: 1262

2015-12-01 10:18  
Роздаю в режимі супер-сід. Хто закрив порти та/або затискає вихідну швидкість - сам собі злобний буратіно Wink (1)
Ua.bos_01 
VIP


З нами з: 22.06.15
Востаннє: 02.12.16
Повідомлень: 1290

2016-05-13 18:16  
Змісту у фільму не має, як будь-якого сенсу чи логіки, звичайна дитяча казка я би сказав, по типу коміксу. Власне кажучи переглядав дану картину лише через Дінклейджа. Його гра - це єдине, що мені у даному фільм справді сподобалось, дуже круто його зобразили. Загалом, якщо щиро кажучи, ставлю фільму трієчку, з розряду тих, що переглянув і на завтра забув.
Ваш часовий пояс: GMT + 2 Години

Нова тема   Відповісти