Завантажити та скачати торренти українською


Земля майбутнього: Світ за межами / Tomorrowland (2015) AVC 60fps Ukr/Eng | Sub Eng

Нові коментарі

Нова тема   Відповісти
Автор Повідомлення
SilentBoss 
Частий відвідувач


З нами з: 19.01.11
Востаннє: 08.12.16
Повідомлень: 35

2015-10-16 21:33  
Земля майбутнього: Світ за межами / Tomorrowland (2015) AVC 60fps Ukr/Eng | Sub Eng


Жанр: екшн, пригодницький, сімейний
Країна: США, Іспанія



Кінокомпанія: Walt Disney Pictures, A113, Babieka
Режисер: Бред Берд
Актори: Джордж Клуні, Брітт Робертсон, Г’ю Лорі, Реффіл Кессіді, Тім МакҐроу, Кетрін Ган, Кіґен-Майкл Кі, Крістофер Бавер, Томас Робінсон, Пірс Ґенон

Сюжет:
Коли в руки до молодої дівчини, яка прагне нових пригод, потрапляє загадковий предмет, що відкриває доступ в паралельну реальність, вона змушена звернутися за допомогою до цинічного генія-винахідника Френка. Кейсі повинна переконати його розкрити таємницю загадкового місця, яке знаходиться поза звичною реальностю, відомою як Земля майбутнього, і переконати Френка повернутися туди, звідки його одного разу вигнали...

Тривалість: 02:10:03
Якість: AVC 60fps
Відео:
кодек:
розмір кадру: 1024 x 432 59.940 fps
бітрейт: 3832 кб/с

Аудіо # 1:
мова: українська
переклад: професійний дубльований
кодек: 5.1
бітрейт: 1536 кб/с

Аудіо # 2:
мова: англійська
переклад: оригінал
кодек: 5.1
бітрейт: 448 кб/с

Субтитри:
мова: англійська
тип: програмні (м'які)
формат: *.srt
Скріншоти





Mediainfo

General
Unique ID : 170951861446321142802737620721705431659 (0x809C2182B7583D0E836AB0699D40326B)
Complete name : D:\film\Tomorrowland (2015) 720p 60fps [UKR_ENG] [Hurtom].mkv
Format : Matroska
Format version : Version 4 / Version 2
File size : 5.26 GiB
Duration : 2h 10mn
Overall bit rate : 5 784 Kbps
Encoded date : UTC 2015-10-16 06:36:35
Writing application : mkvmerge v8.3.0 ('Over the Horizon') 64bit
Writing library : libebml v1.3.1 + libmatroska v1.4.2
DURATION : 01:59:32.309000000
NUMBER_OF_FRAMES : 1295
NUMBER_OF_BYTES : 42995
_STATISTICS_WRITING_APP : mkvmerge v8.3.0 ('Over the Horizon') 64bit
_STATISTICS_WRITING_DATE_UTC : 2015-10-16 06:36:35
_STATISTICS_TAGS : BPS DURATION NUMBER_OF_FRAMES NUMBER_OF_BYTES

Video
ID : 1
Format : AVC
Format/Info : Advanced Video Codec
Format profile : [email protected]
Format settings, CABAC : Yes
Format settings, ReFrames : 4 frames
Codec ID : V_MPEG4/ISO/AVC
Duration : 2h 10mn
Bit rate : 3 832 Kbps
Width : 1 024 pixels
Height : 432 pixels
Display aspect ratio : 2.40:1
Frame rate mode : Constant
Frame rate : 59.880 fps
Original frame rate : 59.940 fps
Color space : YUV
Chroma subsampling : 4:2:0
Bit depth : 8 bits
Scan type : Progressive
Bits/(Pixel*Frame) : 0.145
Stream size : 3.38 GiB (64%)
Writing library : core 146 r2538 121396c
Encoding settings : cabac=1 / ref=3 / deblock=1:0:0 / analyse=0x3:0x113 / me=umh / subme=9 / psy=1 / psy_rd=1.00:0.00 / mixed_ref=1 / me_range=24 / chroma_me=1 / trellis=2 / 8x8dct=1 / cqm=0 / deadzone=21,11 / fast_pskip=1 / chroma_qp_offset=-2 / threads=12 / lookahead_threads=3 / sliced_threads=0 / nr=0 / decimate=1 / interlaced=0 / bluray_compat=0 / constrained_intra=0 / bframes=16 / b_pyramid=2 / b_adapt=2 / b_bias=0 / direct=1 / weightb=1 / open_gop=0 / weightp=2 / keyint=250 / keyint_min=25 / scenecut=40 / intra_refresh=0 / rc=2pass / mbtree=0 / bitrate=3832 / ratetol=1.0 / qcomp=0.60 / qpmin=0 / qpmax=69 / qpstep=4 / cplxblur=20.0 / qblur=0.5 / ip_ratio=1.40 / pb_ratio=1.30 / aq=1:1.00
Language : Dutch
Default : Yes
Forced : No
DURATION : 02:10:03.229000000
NUMBER_OF_FRAMES : 467726
NUMBER_OF_BYTES : 3736151767
_STATISTICS_WRITING_APP : mkvmerge v8.3.0 ('Over the Horizon') 64bit
_STATISTICS_WRITING_DATE_UTC : 2015-10-16 06:36:35
_STATISTICS_TAGS : BPS DURATION NUMBER_OF_FRAMES NUMBER_OF_BYTES

Audio #1
ID : 2
Format :
Format/Info : Digital Theater Systems
Mode : 16
Format settings, Endianness : Big
Codec ID : A_DTS
Duration : 2h 10mn
Bit rate mode : Constant
Bit rate : 1 509 Kbps
Channel(s) : 6 channels
Channel positions : Front: L C R, Side: L R, LFE
Sampling rate : 48.0 KHz
Bit depth : 24 bits
Compression mode : Lossy
Delay relative to video : 1s 853ms
Stream size : 1.37 GiB (26%)
Title : 5.1 @ 1536 kbps
Language : Ukrainian
Default : Yes
Forced : Yes

Audio #2
ID : 3
Format : AC-3
Format/Info : Audio Coding 3
Mode extension : CM (complete main)
Format settings, Endianness : Big
Codec ID : A_AC3
Duration : 2h 10mn
Bit rate mode : Constant
Bit rate : 448 Kbps
Channel(s) : 6 channels
Channel positions : Front: L C R, Side: L R, LFE
Sampling rate : 48.0 KHz
Compression mode : Lossy
Stream size : 417 MiB (8%)
Title : 5.1 @ 448 kbps
Language : English
Default : No
Forced : No

Text
ID : 4
Format : UTF-8
Codec ID : S_TEXT/UTF8
Codec ID/Info : UTF-8 Plain Text
Language : English
Default : No
Forced : No

Menu
00:00:00.000 : en:00:00:00.000
00:16:12.013 : en:00:16:12.013
00:21:56.565 : en:00:21:56.565
00:28:52.189 : en:00:28:52.189
00:37:37.046 : en:00:37:37.046
00:46:35.418 : en:00:46:35.418
00:55:01.048 : en:00:55:01.048
01:11:48.471 : en:01:11:48.471
01:19:18.087 : en:01:19:18.087
01:26:45.033 : en:01:26:45.033
01:30:57.702 : en:01:30:57.702
01:38:05.296 : en:01:38:05.296
01:49:50.501 : en:01:49:50.501
01:56:11.298 : en:01:56:11.298
02:01:26.946 : en:02:01:26.946
Опис та доріжки взяті з релізу: 11FrYkT
Джерело: Інше

Особиста оцінка: 0- не дивився


 Трекер:    Зареєстрований   

Завантажити / скачати фільм українською



відео для новачків



 Зареєстрований:   2015-10-16 21:33
 Розмір:   5.26 GB 
 Оцінка фільму:   8.9/10 (Голосів: 21)
   
igor911 
Відео Гуртом
Відео Гуртом


З нами з: 18.01.08
Востаннє: 10.12.16
Повідомлень: 5215

2015-10-16 23:45  
SilentBoss написано:
розмір кадру: 1024 x 432
це не 720p і взагалі не HD
bot 
робот


З нами з: 30.09.07
Востаннє: 26.05.05
Повідомлень: 16044

2015-10-16 23:47  
Тему перенесено з Фільми в HD до форуму Фільми


igor911

SilentBoss 
Частий відвідувач


З нами з: 19.01.11
Востаннє: 08.12.16
Повідомлень: 35

2015-10-16 23:54  
Дякую за виправлення
shalaputa 
Новенький


З нами з: 29.02.12
Востаннє: 06.09.16
Повідомлень: 3

2015-10-19 06:47  
Панове, а підкажіть, будь ласка, як увімкнути переклад українською, бо скачати - скачав, а людської мови не почув...
igor911 
Відео Гуртом
Відео Гуртом


З нами з: 18.01.08
Востаннє: 10.12.16
Повідомлень: 5215

2015-10-19 06:50  
shalaputa, користуйся будь-яким плеєром, крім віндовс медіа плеєра (він не програє всі звукові доріжки одночасно).
gigska22 
Новенький


З нами з: 25.05.11
Востаннє: 09.12.16
Повідомлень: 18

2015-10-24 20:23  
igor911
це 720p, просто врізаний.

igor911 
Відео Гуртом
Відео Гуртом


З нами з: 18.01.08
Востаннє: 10.12.16
Повідомлень: 5215

2015-10-24 20:30  
gigska22, ти помиляєшся.
Ваш часовий пояс: GMT + 2 Години

Нова тема   Відповісти