Завантажити та скачати торренти українською


Термінатор. Генезис / Terminator. Genisys (2015) 720p-mini

Нові коментарі

Нова тема   Відповісти
Автор Повідомлення
Drool 
VIP


З нами з: 17.04.10
Востаннє: 10.12.16
Повідомлень: 1270

2015-10-15 21:06  
Термінатор. Генезис / Terminator. Genisys (2015) 720p-mini

Жанр: екшн, пригодницький, фантастика, трилер
Країна: США



Кінокомпанія: Paramount Pictures, Skydance Productions
Режисер: Алан Тейлор
Актори: Арнольд Шварценеґер, Джейсон Кларк, Емілія Кларк, Джей Кортні, Дж. К. Сіммонс, Дайо Окенайї, Метт Сміт, Кортні Б. Венс, Бен Хан Лі, Сандрін Голт та інші

Сюжет:
Постійні занурення людей і термінаторів в минуле щоб змінити майбутнє призводять до перелому в полотні часу. Тепер, відправлений Джоном Коннором солдат Кайл Різ, покликаний захищати матір надії людства, потрапляє у світ, в якому все трохи інакше, ніж він думав. Він зустрічає постарілу модель робота Т-800, який був присланий на захист Сари з іншого витка часу. Ворог же тепер наступає не тільки з майбутнього, але й з минулого. Проти Різа, його підзахисної і трохи зношеного Т-800 виступають відразу кілька моделей кіборгів-убивць. Але найстрашнішим було побачити самого Джона Коннора, який прибув один з вельми неприємною місією...


Тривалість: 02:05:42
Якість: 720p-mini
Відео:
кодек:
розмір кадру: 1280x536
бітрейт: 2612 кб/с

Аудіо:
мова: українська
переклад: професійний дубльований
кодек: 5.1
бітрейт: 448 кб/с
Info + MediaInfo
[info]: frame I:1477 Avg QP:14,26 size: 71556
[info]: frame P:42339 Avg QP:16,88 size: 27512
[info]: frame B:137035 Avg QP:19,60 size: 8695
[info]: consecutive B-frames: 3,8% 3,4% 10,9% 17,2% 16,4% 34,7% 5,7% 3,7% 1,3% 1,0% 0,6% 0,6% 0,6%
[info]: mb I I16..4: 10,2% 69,0% 20,7%
[info]: mb P I16..4: 2,6% 15,1% 2,1% P16..4: 29,9% 33,3% 7,9% 1,6% 0,2% skip: 7,2%
[info]: mb B I16..4: 0,2% 1,6% 0,2% B16..8: 33,5% 16,1% 2,0% direct: 4,4% skip:42,0% L0:42,1% L1:46,2% BI:11,8%
[info]: 8x8 transform intra:76,4% inter:58,9%
[info]: direct mvs spatial:97,3% temporal:2,7%
[info]: coded y,uvDC,uvAC intra: 83,0% 84,5% 66,5% inter: 14,5% 17,0% 3,9%
[info]: i16 v,h,dc,p: 12% 11% 3% 73%
[info]: i8 v,h,dc,ddl,ddr,vr,hd,vl,hu: 11% 11% 6% 9% 12% 12% 13% 12% 15%
[info]: i4 v,h,dc,ddl,ddr,vr,hd,vl,hu: 12% 11% 5% 9% 14% 12% 13% 10% 13%
[info]: i8c dc,h,v,p: 39% 27% 18% 17%
[info]: Weighted P-Frames: Y:23,1% UV:18,4%
[info]: ref P L0: 56,9% 5,7% 16,0% 7,2% 4,6% 3,2% 2,4% 1,3% 1,0% 0,8% 0,6% 0,2% 0,0%
[info]: ref B L0: 81,4% 10,6% 4,1% 1,5% 0,9% 0,6% 0,4% 0,2% 0,2% 0,1%
[info]: ref B L1: 92,6% 7,4%
[info]: kb/s:2611,19

General
Unique ID : 78278948633775268721569849134797369689 (0x3AE3FA2476BD3731F28CD311664D3159)
Complete name : /mnt/disk_d/Video/Terminator.Genisys.2015.Ukr.Dub..720p-mini.UAGet.mkv
Format : Matroska
Format version : Version 4 / Version 2
File size : 2.69 GiB
Duration : 2h 5mn
Overall bit rate : 3 061 Kbps
Encoded date : UTC 2015-12-01 05:53:18
Writing application : mkvmerge v8.5.0 ('Vanishing Act') 64bit
Writing library : libebml v1.3.1 + libmatroska v1.4.2
TITLE : Термінатор. Генезис / Terminator. Genisys (2015) 720p-mini -=UAGet=-
ARTIST : Арнольд Шварценеґер, Джейсон Кларк, Емілія Кларк, Джей Кортні, Дж. К. Сіммонс...
DIRECTOR : Алан Тейлор
DATE_RELEASED : 2015
GENRE : екшн, пригодницький, фантастика, трилер
DESCRIPTION : http://www.imdb.com/title/tt1340138/
SYNOPSIS : Постійні занурення людей і термінаторів в минуле щоб змінити майбутнє призводять до перелому в полотні часу. Тепер, відправлений Джоном Коннором солдат Кайл Різ, покликаний захищати матір надії людства, потрапляє у світ, в якому все трохи інакше, ніж він думав. Він зустрічає постарілу модель робота Т-800, який був присланий на захист Сари з іншого витка часу. Ворог же тепер наступає не тільки з майбутнього, але й з минулого. Проти Різа, його підзахисної і трохи зношеного Т-800 виступають відразу кілька моделей кіборгів-убивць. Але найстрашнішим було побачити самого Джона Коннора, який прибув один з вельми неприємною місією...
DURATION : 02:05:42.976000000
NUMBER_OF_FRAMES : 235718
NUMBER_OF_BYTES : 422406656
_STATISTICS_WRITING_APP : mkvmerge v8.5.0 ('Vanishing Act') 64bit
_STATISTICS_WRITING_DATE_UTC : 2015-12-01 05:53:18
_STATISTICS_TAGS : BPS DURATION NUMBER_OF_FRAMES NUMBER_OF_BYTES

Video
ID : 1
Format : AVC
Format/Info : Advanced Video Codec
Format profile : [email protected]
Format settings, CABAC : Yes
Format settings, ReFrames : 11 frames
Codec ID : V_MPEG4/ISO/AVC
Duration : 2h 5mn
Bit rate : 2 612 Kbps
Width : 1 280 pixels
Height : 538 pixels
Display aspect ratio : 2.40:1
Frame rate mode : Constant
Frame rate : 23.976 fps
Color space : YUV
Chroma subsampling : 4:2:0
Bit depth : 8 bits
Scan type : Progressive
Bits/(Pixel*Frame) : 0.158
Stream size : 2.24 GiB (83%)
Writing library : core 142 r2389 956c8d8
Encoding settings : cabac=1 / ref=12 / deblock=1:-3:-3 / analyse=0x3:0x133 / me=umh / subme=11 / psy=1 / psy_rd=1,10:0,15 / mixed_ref=1 / me_range=64 / chroma_me=1 / trellis=2 / 8x8dct=1 / cqm=0 / deadzone=21,11 / fast_pskip=0 / chroma_qp_offset=-3 / threads=6 / lookahead_threads=1 / sliced_threads=0 / nr=0 / decimate=1 / interlaced=0 / bluray_compat=0 / constrained_intra=0 / bframes=12 / b_pyramid=1 / b_adapt=2 / b_bias=0 / direct=3 / weightb=1 / open_gop=0 / weightp=2 / keyint=240 / keyint_min=24 / scenecut=40 / intra_refresh=0 / rc=2pass / mbtree=0 / bitrate=2612 / ratetol=1,0 / qcomp=1,00 / qpmin=0 / qpmax=69 / qpstep=4 / cplxblur=20,0 / qblur=0,5 / ip_ratio=1,40 / pb_ratio=1,30 / aq=2:0,60
Default : Yes
Forced : Yes
Color range : Limited
Color primaries : BT.709
Transfer characteristics : BT.709
Matrix coefficients : BT.709

Audio
ID : 2
Format : AC-3
Format/Info : Audio Coding 3
Mode extension : CM (complete main)
Format settings, Endianness : Big
Codec ID : A_AC3
Duration : 2h 5mn
Bit rate mode : Constant
Bit rate : 448 Kbps
Channel(s) : 6 channels
Channel positions : Front: L C R, Side: L R, LFE
Sampling rate : 48.0 KHz
Compression mode : Lossy
Stream size : 403 MiB (15%)
Language : Ukrainian
Default : Yes
Forced : Yes
Скріншоти




Реліз від:
Особиста оцінка: 6 - третій сорт - не брак


 Трекер:    Зареєстрований   

Завантажити / скачати фільм українською



відео для новачків



 Зареєстрований:   2015-12-01 08:24
 Розмір:   2.69 GB 
 Оцінка фільму:   9.2/10 (Голосів: 25)
   
bot 
робот


З нами з: 30.09.07
Востаннє: 26.05.05
Повідомлень: 16051

2015-10-15 21:06  
Тему перенесено з Фільми в HD до форуму Анонси релізів


Drool

bohun 
VIP


З нами з: 21.03.09
Востаннє: 10.12.16
Повідомлень: 271

2015-10-17 13:31  
Коли?
Drool 
VIP


З нами з: 17.04.10
Востаннє: 10.12.16
Повідомлень: 1270

2015-10-17 20:59  
bohun написано:
Коли?

Кодуватись поставив у п'ятницю на роботі під кінець робочого дня. Вже повинно було відкодуватись, але на роботі буду в понеділок. Викладу відразу ж.

bot 
робот


З нами з: 30.09.07
Востаннє: 26.05.05
Повідомлень: 16051

2015-10-19 07:20  
Тему перенесено з Анонси релізів до форуму Фільми в HD


Drool

DejaVu 
Відео Гуртом - підтримка та поширення
Відео Гуртом - підтримка та поширення


З нами з: 20.12.10
Востаннє: 10.12.16
Повідомлень: 754

2015-10-19 18:10  
мегого? не айтюнс?
Drool 
VIP


З нами з: 17.04.10
Востаннє: 10.12.16
Повідомлень: 1270

2015-10-20 09:33  
DejaVu написано:
мегого? не айтюнс?

Так написано кругом, де є українська доріжка. Це вже не вперше з Мегого звук.

sergej001 
Новенький


З нами з: 14.11.13
Востаннє: 10.12.16
Повідомлень: 5

2015-11-15 20:01  
останнім часом дуже мало фільмів з багатоканальним звуком 5.1 українською! Чому так? раніше кожен фільм українською був 5.1, зараз тільки стерео, і то не дуже...
Drool 
VIP


З нами з: 17.04.10
Востаннє: 10.12.16
Повідомлень: 1270

2015-11-18 12:45  
sergej001 написано:
останнім часом дуже мало фільмів з багатоканальним звуком 5.1 українською! Чому так?
Тому що тут звук не з ліцензійного цифрового носія (DVD/BluRay).
Drool 
VIP


З нами з: 17.04.10
Востаннє: 10.12.16
Повідомлень: 1270

2015-12-01 10:18  
Замінено звукову доріжку за ліцензію з DVD!

Додано через 1 годину 52 хвилини 58 секунд:

Роздаю в режимі супер-сід. Хто закрив порти та/або затискає вихідну швидкість - сам собі злобний буратіно Wink (1)

novopav 
Новенький


З нами з: 14.12.11
Востаннє: 08.12.16
Повідомлень: 23

2016-04-05 22:23  
Мій провайдер блокує роздачу цього фільму - кілька попереджень і відмикає нет, мовляв порушення авторських прав. Хто підкаже, чи законні дії провайдера? Чи можливо з цим боротися?
Ваш часовий пояс: GMT + 2 Години

Нова тема   Відповісти