Завантажити та скачати торренти українською


Земля майбутнього: Світ за межами / Tomorrowland (2015) Remux 1080p Ukr/Eng | Sub Eng

Нові коментарі

Нова тема   Відповісти
Автор Повідомлення
Alex60 
Забанено
Забанено


З нами з: 06.12.14
Востаннє: 24.07.16
Повідомлень: 40

2015-10-15 12:37  
Земля майбутнього: Світ за межами / Tomorrowland (2015) Remux 1080p Ukr/Eng | Sub Eng

Земля майбутнього: Світ за межами / Tomorrowland (2015) Remux 1080p Ukr/Eng | Sub Eng


Жанр: екшн, пригодницький, сімейний
Країна: США, Іспанія



Кінокомпанія: Walt Disney Pictures, A113, Babieka
Режисер: Бред Берд
Актори: Джордж Клуні, Брітт Робертсон, Г’ю Лорі, Реффіл Кессіді, Тім МакҐроу, Кетрін Ган, Кіґен-Майкл Кі, Крістофер Бавер, Томас Робінсон, Пірс Ґенон

Сюжет:
Коли в руки до молодої дівчини, яка прагне нових пригод, потрапляє загадковий предмет, що відкриває доступ в паралельну реальність, вона змушена звернутися за допомогою до цинічного генія-винахідника Френка. Кейсі повинна переконати його розкрити таємницю загадкового місця, яке знаходиться поза звичною реальностю, відомою як Земля майбутнього, і переконати Френка повернутися туди, звідки його одного разу вигнали...


Тривалість: 02:10:16
Якість: Remux
Відео:
кодек:
розмір кадру: 1 920х 1080
бітрейт: 26682 кб/с

Аудіо # 1:
мова: українська
переклад: професійний дубльований
кодек: 5.1
бітрейт: 640 кб/с

Аудіо # 2:
мова: українська
переклад: професійний дубльований
кодек: -HD 5.1
бітрейт: 3745 кб/с

Аудіо # 3:
мова: англійська
переклад: оригінал
кодек: 5.1
бітрейт: 640 кб/с

Аудіо # 4:
мова: англійська
переклад: оригінал
кодек: -HD 7.1
бітрейт: 4839 кб/с

Субтитри:
мова: англійська [Full]
тип: програмні (м'які)
формат: *.srt
MediaInfo
General
Unique ID : 178847012164935479132383965329950888721 (0x868CAE7E999E1F32833B0D696DB9D311)
Complete name : S:\Tomorrowland [2015] ReMux UkrEng.mkv
Format : Matroska
Format version : Version 4 / Version 2
File size : 33.0 GiB
Duration : 2h 10mn
Overall bit rate mode : Variable
Overall bit rate : 36.2 Mbps
Movie name : Tomorrowland [2015] 'ReMux ©
Encoded date : UTC 2015-10-15 08:23:46
Writing application : mkvmerge v8.3.0 ('Over the Horizon') 64bit
Writing library : libebml v1.3.1 + libmatroska v1.4.2
Attachements : cover.jpg
DURATION : 01:58:55.337000000
NUMBER_OF_FRAMES : 1800
NUMBER_OF_BYTES : 47777
_STATISTICS_WRITING_APP : mkvmerge v8.3.0 ('Over the Horizon') 64bit
_STATISTICS_WRITING_DATE_UTC : 2015-10-15 08:23:46
_STATISTICS_TAGS : BPS DURATION NUMBER_OF_FRAMES NUMBER_OF_BYTES

Video
ID : 1
Format : AVC
Format/Info : Advanced Video Codec
Format profile : [email protected]
Format settings, CABAC : Yes
Format settings, ReFrames : 4 frames
Codec ID : V_MPEG4/ISO/AVC
Duration : 2h 10mn
Bit rate mode : Variable
Maximum bit rate : 34.0 Mbps
Width : 1 920 pixels
Height : 1 080 pixels
Display aspect ratio : 16:9
Frame rate mode : Constant
Frame rate : 23.976 fps
Color space : YUV
Chroma subsampling : 4:2:0
Bit depth : 8 bits
Scan type : Progressive
Title : Tomorrowland [2015] 'ReMux ©
Language : English
Default : Yes
Forced : No

Audio #1
ID : 2
Format : AC-3
Format/Info : Audio Coding 3
Mode extension : CM (complete main)
Format settings, Endianness : Big
Codec ID : A_AC3
Duration : 2h 10mn
Bit rate mode : Constant
Bit rate : 640 Kbps
Channel(s) : 6 channels
Channel positions : Front: L C R, Side: L R, LFE
Sampling rate : 48.0 KHz
Compression mode : Lossy
Stream size : 596 MiB (2%)
Title : Dolby Digital | 5.1 | 48 kHz | 16 bit | 640 kbps | Дубляж [Disney/Buena Vista]
Language : Ukrainian
Default : Yes
Forced : No

Audio #2
ID : 3
Format :
Format/Info : Digital Theater Systems
Format profile : MA / Core
Mode : 16
Format settings, Endianness : Big
Codec ID : A_DTS
Duration : 2h 10mn
Bit rate mode : Variable
Bit rate : Unknown / 1 509 Kbps
Channel(s) : 6 channels
Channel positions : Front: L C R, Side: L R, LFE
Sampling rate : 48.0 KHz
Bit depth : 24 bits
Compression mode : Lossless / Lossy
Delay relative to video : 1s 853ms
Title : -HD Ma | 5.1 | 48 kHz | 24 bit | 3745 kbps | Дубляж [Disney/Buena Vista]
Language : Ukrainian
Default : No
Forced : No

Audio #3
ID : 4
Format : AC-3
Format/Info : Audio Coding 3
Mode extension : CM (complete main)
Format settings, Endianness : Big
Codec ID : A_AC3
Duration : 2h 10mn
Bit rate mode : Constant
Bit rate : 640 Kbps
Channel(s) : 6 channels
Channel positions : Front: L C R, Side: L R, LFE
Sampling rate : 48.0 KHz
Compression mode : Lossy
Stream size : 596 MiB (2%)
Title : Dolby Digital | 5.1 | 48 kHz | 16 bit | 640 kbps | Original
Language : English
Default : No
Forced : No

Audio #4
ID : 5
Format :
Format/Info : Digital Theater Systems
Format profile : MA / Core
Mode : 16
Format settings, Endianness : Big
Codec ID : A_DTS
Duration : 2h 10mn
Bit rate mode : Variable
Bit rate : Unknown / 1 509 Kbps
Channel(s) : 8 channels / 6 channels
Channel positions : Front: L C R, Side: L R, Back: L R, LFE / Front: L C R, Side: L R, LFE
Sampling rate : 48.0 KHz
Bit depth : 24 bits
Compression mode : Lossless / Lossy
Title : -HD Ma | 7.1 | 48 kHz | 24 bit | 4839 kbps | Original
Language : English
Default : No
Forced : No

Text
ID : 6
Format : UTF-8
Codec ID : S_TEXT/UTF8
Codec ID/Info : UTF-8 Plain Text
Title : Full, SDH
Language : English
Default : No
Forced : No

Menu
00:00:00.000 : en:00:00:00.000
00:16:12.013 : en:00:16:12.013
00:21:56.565 : en:00:21:56.565
00:28:52.189 : en:00:28:52.189
00:37:37.046 : en:00:37:37.046
00:46:35.418 : en:00:46:35.418
00:55:01.048 : en:00:55:01.048
01:11:48.471 : en:01:11:48.471
01:19:18.087 : en:01:19:18.087
01:26:45.033 : en:01:26:45.033
01:30:57.702 : en:01:30:57.702
01:38:05.296 : en:01:38:05.296
01:49:50.501 : en:01:49:50.501
01:56:11.298 : en:01:56:11.298
02:01:26.946 : en:02:01:26.946
Скріншоти




Золотий реліз (завантажене не впливає на рейтинг)
 Трекер:    Зареєстрований   

Завантажити / скачати фільм українською



відео для новачків



 Зареєстрований:   2015-10-15 12:37
 Розмір:   32.95 GB 
 Оцінка фільму:   8.5/10 (Голосів: 11)
   
bot 
робот


З нами з: 30.09.07
Востаннє: 26.05.05
Повідомлень: 16004

2016-07-24 22:10  
Тему перенесено з Фільми в HD до форуму Фінальний смітник


Alex60

bot 
робот


З нами з: 30.09.07
Востаннє: 26.05.05
Повідомлень: 16004

2016-07-25 13:27  
Тему перенесено з Фінальний смітник до форуму Фільми в HD


igor911

Ваш часовий пояс: GMT + 2 Години

Нова тема   Відповісти