Завантажити та скачати торренти українською


Посмішка Мони Лізи / Mona Lisa Smile (2003) 720p Ukr/Eng | Sub Eng/Swe

Нові коментарі

Нова тема   Відповісти
Автор Повідомлення
Anonymous 







2015-10-13 17:09  
Посмішка Мони Лізи / Mona Lisa Smile (2003) 720p Ukr/Eng | Sub Eng/Swe



Українізований постер


повнорозмірні зображення відкриються по кліку (з натиснутим CTRL чи кліком середньою кнопкою мишки - у новій вкладці)


Жанр: драма
Країна: США



Кінокомпанія: Revolution Studios, Red Om Films
Режисер: Майк Ньюел / Mike Newell
Актори: Джулія Робертс / Julia Roberts, Кірстен Данст / Kirsten Dunst, Джулія Стайлз / Julia Stiles, Меггі Джилленгол / Maggie Gyllenhaal, Джинніфер Гудвін / Ginnifer Goodwin, Домінік Вест / Dominic West, Джулієт Стівенсон / Juliet Stevenson, Марсія Ґей Гарден / Marcia Gay Harden та інші

Сюжет:
У фільмі іде мова про три покоління американських жінок привілейованого прошарку суспільства. Перше - це жінки старшого покоління, які одержали строге консервативне виховання, а тепер (у 1953 році) виховують дівчат в елітному коледжі. Друге - це жінки середнього покоління, які одержали таке ж виховання, але в їхнє життя вірвалась Друга світова, і навіки змінила їхнє життя. У деяких з них кохані загинули на війні. У деяких хоч і повернулись, але це вже були зовсім інші люди. Вони побачили смерть, насилля, каліцтво, жорстокісь, бруд. А навколо була маса молоденьких дівчат, які підросли за цей час і з захватом дивились на них. І наші жіночки лишились самотні. Вони одержали прекрасну освіту (навіть у Берклі була маса вакантних студентських місць), виросли духовно та інтелектуально, стали самостійні, самодостатні, незалежні. Вони стараються вплинути на третє покоління жінок, тих які підросли за цей час. На світоглядному рівні відбуваються тертя між першим і другим поколінням. І добре що друге покоління відступає, що хватило на це розуму. Третє має одержати гарну освіту і як би не склалось їхнє життя, вони мають стати твердою опорою здорового консервативного суспільства. (п. zaika)


Рейтинг MPAA: PG-13 - дітям до 13 років перегляд не бажаний
Вікова категорія: 12+

Тривалість: 01:59:20
Якість: 720p
Відео:
кодек:
розмір кадру: 1280 х 692
бітрейт: 6357 кбіт/с

Аудіо # 1:
мова: українська
переклад: багатоголосий закадровий
ролі озвучили: Людмила Чиншева, Анатолій Пашнін, Наталя Задніпровська і Дмитро Терещук
кодек: 2.0
бітрейт: 192 кбіт/с

Аудіо # 2:
мова: англійська
переклад: оригінал
кодек: 5.1
бітрейт: 640 кбіт/с

Субтитри # 1:
мова: англійська
тип: програмні (м'які)
формат: *.ass

Субтитри # 2:
мова: шведська
тип: програмні (м'які)
формат: *.ass
MediaInfo
Код:
General
Unique ID                   : 189119415532143992713530470065062824703 (0x8E4713154E0D71B7B9CD3B5560904AFF)
Complete name               : Mona Lisa Smile (2003) [Ukr,Eng sub.Eng,Swe] 720p [Hurtom & HDClub].mkv
Format                      : Matroska
Format version              : Version 4 / Version 2
File size                   : 5.99 GiB
Duration                    : 1h 59mn
Overall bit rate            : 7 191 Kbps
Movie name                  : Посмішка Мони Лізи / Mona Lisa Smile (2003) [Ukr,Eng] 720p [Hurtom & HDClub] by igor911
Encoded date                : UTC 2015-10-12 13:45:00
Writing application         : mkvmerge v8.4.0 ('A better way to fly') 64bit
Writing library             : libebml v1.3.1 + libmatroska v1.4.2
Attachements                : cover.jpg
DURATION                    : 01:59:19.936000000
NUMBER_OF_FRAMES            : 223748
NUMBER_OF_BYTES             : 171838464
_STATISTICS_WRITING_APP     : mkvmerge v8.4.0 ('A better way to fly') 64bit
_STATISTICS_WRITING_DATE_UT : 2015-10-12 13:45:00
_STATISTICS_TAGS            : BPS DURATION NUMBER_OF_FRAMES NUMBER_OF_BYTES

Video
ID                          : 1
Format                      : AVC
Format/Info                 : Advanced Video Codec
Format profile              : [email protected]
Format settings, CABAC      : Yes
Format settings, ReFrames   : 9 frames
Codec ID                    : V_MPEG4/ISO/AVC
Duration                    : 1h 59mn
Bit rate                    : 6 357 Kbps
Width                       : 1 280 pixels
Height                      : 692 pixels
Display aspect ratio        : 1.85:1
Frame rate mode             : Constant
Frame rate                  : 23.976 fps
Color space                 : YUV
Chroma subsampling          : 4:2:0
Bit depth                   : 8 bits
Scan type                   : Progressive
Bits/(Pixel*Frame)          : 0.299
Stream size                 : 5.18 GiB (86%)
Title                       : Посмішка Мони Лізи / Mona Lisa Smile / Улыбка Моны Лизы (2003) 720p [HDClub]
Writing library             : core 65 r999 cc51047
Encoding settings           : cabac=1 / ref=9 / deblock=1:-3:-3 / analyse=0x3:0x113 / me=umh / subme=9 / psy_rd=1.0:0.0 / mixed_ref=1 / me_range=24 / chroma_me=1 / trellis=0 / 8x8dct=1 / cqm=2 / deadzone=8,6 / chroma_qp_offset=-2 / threads=6 / nr=0 / decimate=1 / mbaff=0 / bframes=3 / b_pyramid=1 / b_adapt=1 / b_bias=0 / direct=1 / wpredb=1 / keyint=250 / keyint_min=25 / scenecut=40(pre) / rc=2pass / bitrate=6357 / ratetol=1.0 / qcomp=0.60 / qpmin=10 / qpmax=51 / qpstep=4 / cplxblur=20.0 / qblur=0.5 / vbv_maxrate=50000 / vbv_bufsize=40000 / ip_ratio=1.40 / pb_ratio=1.30 / aq=1:1.10
Language                    : English
Default                     : Yes
Forced                      : No
DURATION                    : 01:59:20.081000000
NUMBER_OF_FRAMES            : 171670
NUMBER_OF_BYTES             : 5689194039
_STATISTICS_WRITING_APP     : mkvmerge v8.4.0 ('A better way to fly') 64bit
_STATISTICS_WRITING_DATE_UT : 2015-10-12 13:45:00
_STATISTICS_TAGS            : BPS DURATION NUMBER_OF_FRAMES NUMBER_OF_BYTES

Audio #1
ID                          : 2
Format                      : AC-3
Format/Info                 : Audio Coding 3
Mode extension              : CM (complete main)
Format settings, Endianness : Big
Codec ID                    : A_AC3
Duration                    : 1h 59mn
Bit rate mode               : Constant
Bit rate                    : 192 Kbps
Channel(s)                  : 2 channels
Channel positions           : Front: L R
Sampling rate               : 48.0 KHz
Compression mode            : Lossy
Stream size                 : 164 MiB (3%)
Title                       : MVO [Inter] 2.0 192 kbps [Hurtom-Breniak]
Language                    : Ukrainian
Default                     : Yes
Forced                      : No

Audio #2
ID                          : 3
Format                      : AC-3
Format/Info                 : Audio Coding 3
Mode extension              : CM (complete main)
Format settings, Endianness : Big
Codec ID                    : A_AC3
Duration                    : 1h 59mn
Bit rate mode               : Constant
Bit rate                    : 640 Kbps
Channel(s)                  : 6 channels
Channel positions           : Front: L C R, Side: L R, LFE
Sampling rate               : 48.0 KHz
Compression mode            : Lossy
Stream size                 : 546 MiB (9%)
Title                       : Original 5.1 640 kbps
Language                    : English
Default                     : No
Forced                      : No

Text #1
ID                          : 4
Format                      : ASS
Codec ID                    : S_TEXT/ASS
Codec ID/Info               : Advanced Sub Station Alpha
Compression mode            : Lossless
Title                       : Eng full (ass)
Language                    : English
Default                     : No
Forced                      : No

Text #2
ID                          : 5
Format                      : ASS
Codec ID                    : S_TEXT/ASS
Codec ID/Info               : Advanced Sub Station Alpha
Compression mode            : Lossless
Title                       : Swe full (ass)
Language                    : Swedish
Default                     : No
Forced                      : No




Джерела та подяки: &
ріп відео - sergey_n (HDClub); українська доріжка - Breniak - зведення, OlegCena - запис з ТБ; українізований постер - Vladdrako17; фільмографії акторів та інформація про озвучення - Віктор (всі - Гуртом).





ЗАЛИШАЙТЕСЬ ЯКОМОГА ДОВШЕ НА РОЗДАЧІ!

СКАЧАВ САМ - ДАЙ СКАЧАТИ ІНШИМ


Срібний реліз (на рейтинг впливає 50% завантаженого)
 Трекер:    Зареєстрований   

Завантажити / скачати фільм українською



відео для новачків



 Зареєстрований:   2015-10-13 17:09
 Розмір:   5.99 GB 
 Оцінка фільму:   3.1/10 (Голосів: 13)
   
Інші релізи
   Посмішка Мони Лізи / Mona Lisa Smile (2003) 2xUkr/Eng Arsenfpu  4 / 0   2.03 GB   2016-09-29 21:30 
   Посмішка Мони Лізи / Mona Lisa Smile (2003) Ukr/Eng Breniak  5 / 0   2.02 GB   2012-08-28 23:02 
Ваш часовий пояс: GMT + 2 Години

Нова тема   Відповісти