Завантажити та скачати торренти українською


Пікселі / Pixels (2015) Remux 1080p Ukr/Eng | Sub Ukr/Eng

Нові коментарі

Нова тема   Відповісти
Автор Повідомлення
Alex60 
Забанено
Забанено


З нами з: 06.12.14
Востаннє: 24.07.16
Повідомлень: 40

2015-10-12 09:24  
Пікселі / Pixels (2015) Remux 1080p Ukr/Eng | Sub Ukr/Eng

Пікселі / Pixels (2015) Remux 1080p Ukr/Eng | Sub Ukr/Eng


Жанр: пригодницький, екшн, комедія, фантастика, сімейний
Країна: США, Китай, Канада



Кінокомпанія: 1492 Pictures, Columbia Pictures, Happy Madison Productions, China Film Co.
Режисер: Кріс Коламбус / Chris Columbus
Актори: Адам Сендлер / Adam Sandler, Кевін Джеймс / Kevin James, Мішель Монаґан / Michelle Monaghan, Пітер Дінклейдж / Peter Dinklage, Джош Ґад / Josh Gad, Брайан Кокс / Brian Cox, Ешлі Бенсон / Ashley Benson, Шон Бін / Sean Bean, Джейн Краковскі / Jane Krakowski, Роб Арчер / Rob Archer, Томас МакКарті / Thomas McCarthy, Денніс Акаяма / Dennis Akayama та інші

Сюжет:
Прибульці з космосу помилково трактують тематику комп'ютерних ігор як оголошення їм війни і атакують Землю, використовуючи відеоігри 80-х в якості моделей для різноманітних стратегій вторгнення. Президент країни звертається за допомогою до друга дитинства, чемпіона тих років по грі в автомати Сема Бреннера. Той збирає команду гравців, фахівців з відеоігор, щоб спільно здолати прибульців і врятувати планету...


Тривалість: 01:45:50
Якість: Remux
Відео:
кодек:
розмір кадру: 1920 х 1080
бітрейт: 24880 кб/с

Аудіо # 1:
мова: українська
переклад: професійний дубльований [Blu-ray CEE]
кодек: 5.1
бітрейт: 640 кб/с

Аудіо # 2:
мова: англійська
переклад: оригінал
кодек: 5.1
бітрейт: 640 кб/с

Аудіо # 3:
мова: англійська
переклад: оригінал
кодек: -HD 5.1
бітрейт: 2320 кб/с

Аудіо # 4:
мова: англійська
переклад: оригінал
кодек: TrueHD 7.1
бітрейт: 4879 кб/с

Субтитри:
мова: українська [Full]
тип: програмні (м'які)
формат: *.srt

Субтитри:
мова: англійська [Forced, Full]
тип: програмні (м'які)
формат: *.srt
MediaInfo
General
Unique ID : 173223150967181779050658034872574753352 (0x825190BAD5D70327A490C448BD0B3A48)
Complete name : S:\Pixels [2015] ReMux UkrEng.mkv
Format : Matroska
Format version : Version 4 / Version 2
File size : 24.7 GiB
Duration : 1h 45mn
Overall bit rate mode : Variable
Overall bit rate : 33.4 Mbps
Movie name : Pixels [2015] 'ReMux ©
Encoded date : UTC 2015-10-24 12:39:32
Writing application : mkvmerge v8.3.0 ('Over the Horizon') 64bit
Writing library : libebml v1.3.1 + libmatroska v1.4.2
Attachements : cover.jpg
DURATION : 01:45:49.343000000
NUMBER_OF_FRAMES : 7619212
NUMBER_OF_BYTES : 3872191472
_STATISTICS_WRITING_APP : mkvmerge v8.3.0 ('Over the Horizon') 64bit
_STATISTICS_WRITING_DATE_UTC : 2015-10-24 12:39:32
_STATISTICS_TAGS : BPS DURATION NUMBER_OF_FRAMES NUMBER_OF_BYTES

Video
ID : 1
Format : AVC
Format/Info : Advanced Video Codec
Format profile : [email protected]
Format settings, CABAC : Yes
Format settings, ReFrames : 2 frames
Codec ID : V_MPEG4/ISO/AVC
Duration : 1h 45mn
Bit rate mode : Variable
Width : 1 920 pixels
Height : 1 080 pixels
Display aspect ratio : 16:9
Frame rate mode : Constant
Frame rate : 23.976 fps
Color space : YUV
Chroma subsampling : 4:2:0
Bit depth : 8 bits
Scan type : Progressive
Title : Pixels [2015] 'ReMux ©
Language : English
Default : Yes
Forced : No

Audio #1
ID : 2
Format : AC-3
Format/Info : Audio Coding 3
Mode extension : CM (complete main)
Format settings, Endianness : Big
Codec ID : A_AC3
Duration : 1h 45mn
Bit rate mode : Constant
Bit rate : 640 Kbps
Channel(s) : 6 channels
Channel positions : Front: L C R, Side: L R, LFE
Sampling rate : 48.0 KHz
Compression mode : Lossy
Stream size : 484 MiB (2%)
Title : Dolby Digital | 5.1 | 48 kHz | 16 bit | 640 kbps | Дубляж [Blu-ray CEE]
Language : Ukrainian
Default : No
Forced : No

Audio #2
ID : 3
Format : AC-3
Format/Info : Audio Coding 3
Mode extension : CM (complete main)
Format settings, Endianness : Big
Codec ID : A_AC3
Duration : 1h 45mn
Bit rate mode : Constant
Bit rate : 640 Kbps
Channel(s) : 6 channels
Channel positions : Front: L C R, Side: L R, LFE
Sampling rate : 48.0 KHz
Compression mode : Lossy
Stream size : 484 MiB (2%)
Title : Dolby Digital | 5.1 | 48 kHz | 16 bit | 640 kbps | Original
Language : English
Default : No
Forced : No

Audio #3
ID : 4
Format :
Format/Info : Digital Theater Systems
Format profile : MA / Core
Mode : 16
Format settings, Endianness : Big
Codec ID : A_DTS
Duration : 1h 45mn
Bit rate mode : Variable
Bit rate : Unknown / 1 509 Kbps
Channel(s) : 6 channels
Channel positions : Front: L C R, Side: L R, LFE
Sampling rate : 48.0 KHz
Bit depth : 16 bits
Compression mode : Lossless / Lossy
Title : -HD Ma | 5.1 | 48 kHz | 16 bit | 2320 kbps | Original
Language : English
Default : No
Forced : No

Audio #4
ID : 5
Format : TrueHD
Codec ID : A_TRUEHD
Duration : 1h 45mn
Bit rate mode : Variable
Maximum bit rate : 8 745 Kbps
Channel(s) : 8 channels
Channel positions : Front: L C R, Side: L R, Back: L R, LFE
Sampling rate : 48.0 KHz
Compression mode : Lossless
Title : Dolby TrueHD | 7.1 | 48 kHz | 24 bit | 4879 kbps | Original
Language : English
Default : No
Forced : No

Text #1
ID : 6
Format : UTF-8
Codec ID : S_TEXT/UTF8
Codec ID/Info : UTF-8 Plain Text
Title : Full [iTunes]
Language : Ukrainian
Default : No
Forced : No

Text #2
ID : 7
Format : UTF-8
Codec ID : S_TEXT/UTF8
Codec ID/Info : UTF-8 Plain Text
Title : Full [iTunes]
Language : English
Default : No
Forced : No

Menu
00:00:00.000 : en:1
00:04:54.000 : en:2
00:10:22.000 : en:3
00:14:52.000 : en:4
00:19:51.000 : en:5
00:26:19.000 : en:6
00:32:56.000 : en:7
00:40:34.000 : en:8
00:47:38.000 : en:9
00:52:31.000 : en:10
00:58:53.000 : en:11
01:05:04.000 : en:12
01:09:20.000 : en:13
01:18:09.000 : en:14
01:27:50.000 : en:15
01:33:48.000 : en:16
Скріншоти




Золотий реліз (завантажене не впливає на рейтинг)
 Трекер:    Зареєстрований   

Завантажити / скачати фільм українською



відео для новачків



 Зареєстрований:   2015-10-24 16:45
 Розмір:   24.71 GB 
 Оцінка фільму:   7.9/10 (Голосів: 8)
   
Інші релізи
   Пікселі / Pixels (2015) 1080p 3D Ukr/Eng | Sub Ukr/Eng [HalfOverUnder] -VipeR-  1 / 0   7.38 GB   2016-01-05 13:22 
   Пікселі / Pixels (2015) 720p-mini Drool  3 / 0   2.26 GB   2015-11-30 16:53 
   Пікселі / Pixels (2015) AngryBirdsUA  5 / 0   1.46 GB   2015-11-22 11:27 
   Пікселі / Pixels (2015) Ukr/Eng | Sub Ukr/Eng НТН  1 / 0   2.18 GB   2015-11-17 23:37 
   Пікселі / Pixels (2015) AVC Ukr | Sub Ukr/Eng patriot2305  7 / 0   2.03 GB   2015-10-24 08:03 
   Пікселі / Pixels (2015) 1080p Ukr/Eng | Sub Ukr/Eng 11FrYkT  4 / 0   8.28 GB   2015-10-24 07:51 
   Пікселі / Pixels (2015) 720p Ukr/Eng | Sub Ukr/Eng 11FrYkT  0 / 0   4.21 GB   2015-10-24 07:49 
Alex60 
Забанено
Забанено


З нами з: 06.12.14
Востаннє: 24.07.16
Повідомлень: 40

2015-10-24 18:00  
Зміна укр. доріжки з /2ch/192кб/iTunes на /5.1/640кб/Blu-ray CEE
Та додано анг. доріжку у TrueHD 7.1.

bot 
робот


З нами з: 30.09.07
Востаннє: 26.05.05
Повідомлень: 16050

2016-07-24 22:09  
Тему перенесено з Фільми в HD до форуму Фінальний смітник


Alex60

bot 
робот


З нами з: 30.09.07
Востаннє: 26.05.05
Повідомлень: 16050

2016-07-25 13:25  
Тему перенесено з Фільми в HD до форуму Мультфільми в HD


igor911

desty 
Новенький


З нами з: 24.10.13
Востаннє: 20.11.16
Повідомлень: 3

2016-09-22 19:46  
Поверніться будь-ласка на роздачу! Вже два тижні качаю... )))
sstar123 
Новенький


З нами з: 16.09.12
Востаннє: 17.11.16
Повідомлень: 1

2016-09-24 12:02  
чому в мультфільмах?
Electroz 
Свій


З нами з: 18.09.14
Востаннє: 10.12.16
Повідомлень: 139

2016-09-24 14:07  
sstar123 написано:
чому в мультфільмах?

Бо даний жанр відноситься до мультфільму.

bot 
робот


З нами з: 30.09.07
Востаннє: 26.05.05
Повідомлень: 16050

2016-09-24 22:23  
Тему перенесено з Мультфільми в HD до форуму Фільми в HD


igor911

Ваш часовий пояс: GMT + 2 Години

Нова тема   Відповісти