Завантажити та скачати торренти українською


Говардс Енд / Howards End (1992) 720p Ukr/Eng | Sub Eng

Нові коментарі

Нова тема   Відповісти
Автор Повідомлення
Anonymous 







2015-10-11 17:46  
Говардс Енд / Howards End (1992) 720p Ukr/Eng | Sub Eng



Оригінальні обкладинки та постери




повнорозмірні зображення відкриються по кліку (з натиснутим CTRL чи кліком середньою кнопкою мишки - у новій вкладці)


Жанр: драма, мелодрама
Країна: Великобританія, Японія, США



3 Оскари, Золотий глобус, 2 премії Британської кіноакадемії та премія Каннського кінофестивалю


Кінокомпанія: Merchant Ivory Productions, Sumitomo Corporation, Imagica, Cinema Ten, Japan Satellite Broadcasting (JBS), Ide Productions, Film Four International
Режисер: Джеймс Айворі / James Ivory
Актори: Емма Томпсон / Emma Thompson, Ентоні Гопкінс / Anthony Hopkins, Гелена Бонем Картер / Helena Bonham Carter, Семюел Вест / Samuel West, Нікола Дафет / Nicola Duffett, Едріан Рос Медженті / Adrian Ross Magenty, Ванесса Редґрейв / Vanessa Redgrave, Прунелла Скейлз / Prunella Scales, Джозеф Бенет / Joseph Bennett, Пітер Сельєр / Peter Cellier та інші

Сюжет:
Дія відбувається в Англії на початку XX століття. Історія розповідає про три сімейства, що представляють три різних класи. Вілкокси - багаті капіталісти, представляють клас, який замінює стару аристократію. Сестри Шлеґел представляють освічену буржуазію. Басти належать до низів середнього класу. Фільм за допомогою показу переходу дому "Говардс Енд" від одного власника до іншого відповідає на запитання "Хто успадкує Англію?".
Екранізація однойменного роману Едварда Морґана Форстера.


Рейтинг MPAA: PG - рекомендується присутність батьків
Вікова категорія: 12+

Тривалість: 02:22:34
Якість: 720p
Відео:
кодек:
розмір кадру: 1280 х 544
бітрейт: 4000 кбіт/с

Аудіо # 1:
мова: українська
переклад: двоголосий закадровий - Студія 1+1
ролі озвучили: Георгій Гавриленко і Ніна Касторф
кодек: 2.0
бітрейт: 192 кбіт/с

Аудіо # 2:
мова: англійська
переклад: оригінал
кодек: 5.1
бітрейт: 1509 кбіт/с

Субтитри:
мова: англійська
тип: програмні (м'які)
формат: *.srt

Збережено оригінальні розділи, як на Blu-ray.
MediaInfo та log
Код:
General
Unique ID                   : 233558156265863989956865861254706405987 (0xAFB5AA292DA1224FACD588C4501CA263)
Complete name               : Howards End (1992) [Ukr,Eng sub.Eng] 720p [Hurtom].mkv
Format                      : Matroska
Format version              : Version 4 / Version 2
File size                   : 5.68 GiB
Duration                    : 2h 22mn
Overall bit rate            : 5 704 Kbps
Movie name                  : Говардс Енд / Howards End (1992) [Ukr,Eng sub.Eng] 720p [Hurtom-igor911]
Encoded date                : UTC 2015-10-11 14:41:00
Writing application         : mkvmerge v8.4.0 ('A better way to fly') 64bit
Writing library             : libebml v1.3.1 + libmatroska v1.4.2
Attachements                : cover.jpg / x264log.txt
DURATION                    : 02:22:34.955000000
NUMBER_OF_FRAMES            : 802027
NUMBER_OF_BYTES             : 1613678392
_STATISTICS_WRITING_APP     : mkvmerge v8.4.0 ('A better way to fly') 64bit
_STATISTICS_WRITING_DATE_UT : 2015-10-11 14:41:00
_STATISTICS_TAGS            : BPS DURATION NUMBER_OF_FRAMES NUMBER_OF_BYTES

Video
ID                          : 1
Format                      : AVC
Format/Info                 : Advanced Video Codec
Format profile              : [email protected]
Format settings, CABAC      : Yes
Format settings, ReFrames   : 9 frames
Codec ID                    : V_MPEG4/ISO/AVC
Duration                    : 2h 22mn
Bit rate                    : 4 000 Kbps
Width                       : 1 280 pixels
Height                      : 544 pixels
Display aspect ratio        : 2.35:1
Frame rate mode             : Constant
Frame rate                  : 23.976 fps
Color space                 : YUV
Chroma subsampling          : 4:2:0
Bit depth                   : 8 bits
Scan type                   : Progressive
Bits/(Pixel*Frame)          : 0.240
Stream size                 : 3.87 GiB (68%)
Title                       : Говардс Енд / Howards End / Усадьба Говардс Энд (1992) 720p [STarankov]
Writing library             : core 125 r2200 999b753
Encoding settings           : cabac=1 / ref=9 / deblock=1:0:0 / analyse=0x3:0x113 / me=umh / subme=9 / psy=1 / psy_rd=1.00:0.15 / mixed_ref=1 / me_range=24 / chroma_me=1 / trellis=2 / 8x8dct=1 / cqm=0 / deadzone=21,11 / fast_pskip=0 / chroma_qp_offset=-3 / threads=6 / lookahead_threads=1 / sliced_threads=0 / nr=0 / decimate=1 / interlaced=0 / bluray_compat=0 / constrained_intra=0 / bframes=7 / b_pyramid=2 / b_adapt=2 / b_bias=0 / direct=3 / weightb=1 / open_gop=0 / weightp=2 / keyint=230 / keyint_min=23 / scenecut=40 / intra_refresh=0 / rc=2pass / mbtree=0 / bitrate=4000 / ratetol=1.0 / qcomp=0.60 / qpmin=0 / qpmax=69 / qpstep=4 / cplxblur=20.0 / qblur=0.5 / ip_ratio=1.40 / pb_ratio=1.30 / aq=1:1.00
Language                    : English
Default                     : Yes
Forced                      : No
DURATION                    : 02:22:34.963000000
NUMBER_OF_FRAMES            : 205114
NUMBER_OF_BYTES             : 4277498901
_STATISTICS_WRITING_APP     : mkvmerge v8.4.0 ('A better way to fly') 64bit
_STATISTICS_WRITING_DATE_UT : 2015-10-11 14:41:00
_STATISTICS_TAGS            : BPS DURATION NUMBER_OF_FRAMES NUMBER_OF_BYTES

Audio #1
ID                          : 2
Format                      : AC-3
Format/Info                 : Audio Coding 3
Mode extension              : CM (complete main)
Format settings, Endianness : Big
Codec ID                    : A_AC3
Duration                    : 2h 22mn
Bit rate mode               : Constant
Bit rate                    : 192 Kbps
Channel(s)                  : 2 channels
Channel positions           : Front: L R
Sampling rate               : 48.0 KHz
Compression mode            : Lossy
Stream size                 : 196 MiB (3%)
Title                       : DVO [1+1,Kino] 2.0 192 kbps [Hurtom-omm,Tanat13]
Language                    : Ukrainian
Default                     : Yes
Forced                      : No

Audio #2
ID                          : 3
Format                      :
Format/Info                 : Digital Theater Systems
Mode                        : 16
Format settings, Endianness : Big
Codec ID                    : A_DTS
Duration                    : 2h 22mn
Bit rate mode               : Constant
Bit rate                    : 1 509 Kbps
Channel(s)                  : 6 channels
Channel positions           : Front: L C R, Side: L R, LFE
Sampling rate               : 48.0 KHz
Bit depth                   : 24 bits
Compression mode            : Lossy
Stream size                 : 1.50 GiB (26%)
Title                       : Original 5.1 1509 kbps
Language                    : English
Default                     : No
Forced                      : No

Text
ID                          : 4
Format                      : UTF-8
Codec ID                    : S_TEXT/UTF8
Codec ID/Info               : UTF-8 Plain Text
Title                       : Eng SDH
Language                    : English
Default                     : No
Forced                      : No

Menu
00:00:00.000                : :"Dearest Meg"
00:05:53.061                : :"Tell no one"
00:12:02.639                : :Sublime noise
00:18:03.082                : :The flat opposite
00:26:13.363                : :"Not in this world"
00:30:42.632                : :Too apt to brood
00:38:19.088                : :Not canceled, but postponed
00:42:52.528                : :Burned wishes and honey air
00:49:00.229                : :A born explorer
00:55:00.547                : :Overexpressive
00:59:37.783                : :A pleasure and a privilege
01:05:19.749                : :"Do you ever get lonely?"
01:11:01.048                : :"The poor are poor"
01:16:06.687                : :Her way of walking
01:21:25.088                : :A perverted sense of philanthropy
01:27:45.635                : :No time like the present
01:34:09.811                : :Far from a saint
01:40:30.149                : :When people fail you
01:46:42.771                : :"Who is who and what is what"
01:52:31.995                : :A question of madness
01:58:52.876                : :Forgiveness
02:06:59.195                : :An untimely death
02:12:32.194                : :The following summer
02:18:17.998                : :"I didn't do wrong, did I?"


Код:
[info]: 1280x544p 1:1 @ 24000/1001 fps (cfr)
[info]: using SAR=1/1
[info]: using cpu capabilities: MMX2 SSE2Fast SSSE3 FastShuffle SSE4.2
[info]: profile High, level 4.1

[info]: frame I:1311  Avg QP:19.13  size:127720
[info]: frame P:38076 Avg QP:21.34  size: 40849
[info]: frame B:165727 Avg QP:22.76  size: 15415
[info]: consecutive B-frames:  0.9%  0.7%  3.0% 10.6% 16.5% 54.1%  9.3%  4.8%
[info]: mb I  I16..4: 23.9% 55.4% 20.7%
[info]: mb P  I16..4:  0.9% 12.3%  0.7%  P16..4: 42.0% 28.8% 14.1%  0.0%  0.0%    skip: 1.3%
[info]: mb B  I16..4:  0.0%  1.8%  0.0%  B16..8: 44.1% 10.0%  2.8%  direct: 8.4%  skip:32.8%  L0:45.2% L1:47.5% BI: 7.4%
[info]: 8x8 transform intra:86.1% inter:64.3%
[info]: direct mvs  spatial:99.0% temporal:1.0%
[info]: coded y,uvDC,uvAC intra: 97.7% 74.6% 38.3% inter: 33.6% 29.5% 1.2%
[info]: i16 v,h,dc,p: 19%  6% 47% 28%
[info]: i8 v,h,dc,ddl,ddr,vr,hd,vl,hu: 10%  6% 10% 11% 14% 14% 12% 12% 11%
[info]: i4 v,h,dc,ddl,ddr,vr,hd,vl,hu: 11%  7%  4%  9% 15% 16% 14% 13% 12%
[info]: i8c dc,h,v,p: 42% 25% 22% 11%
[info]: Weighted P-Frames: Y:10.3% UV:3.0%
[info]: ref P L0: 37.7% 14.0% 20.0%  6.7%  6.9%  4.4%  4.8%  2.3%  2.8%  0.3%  0.0%
[info]: ref B L0: 65.4% 14.3%  7.6%  4.4%  3.2%  3.0%  1.6%  0.6%
[info]: ref B L1: 91.0%  9.0%
[info]: kb/s:4000.02
encoded 205114 frames, 8.44 fps, 4000.02 kb/s




Джерела та подяки: &
ріп відео - STarankov (кінозал); українська доріжка - omm - зведення, Tanat13 - запис з ТБ; фільмографії акторів та інформація про озвучення - Віктор (всі - Гуртом).





ЗАЛИШАЙТЕСЬ ЯКОМОГА ДОВШЕ НА РОЗДАЧІ!

СКАЧАВ САМ - ДАЙ СКАЧАТИ ІНШИМ


Срібний реліз (на рейтинг впливає 50% завантаженого)
 Трекер:    Зареєстрований   

Завантажити / скачати фільм українською



відео для новачків



 Зареєстрований:   2015-10-11 17:46
 Розмір:   5.68 GB 
 Оцінка фільму:   3.6/10 (Голосів: 14)
   
Інші релізи
   Говардс Енд / Howards End (1992) Ukr/Eng | Sub Eng omm  4 / 1   2.79 GB   2015-10-10 14:33 
Ваш часовий пояс: GMT + 2 Години

Нова тема   Відповісти