Завантажити та скачати торренти українською


Наталія Бучинська - Дискографія (3 альбоми) (2004-2016) [FLAC] | Pop

Нові коментарі

Нова тема   Відповісти
Автор Повідомлення
igoryek 
Новенький


З нами з: 17.10.14
Востаннє: 27.11.16
Повідомлень: 16

2015-10-11 12:25  
Наталія Бучинська - Дискографія (3 альбоми) (2004-2016) [FLAC] | Pop

Наталія Бучинська - Дискографія (3 альбоми) (2004-2016) [FLAC] | Pop

Стиль: Pop
Країна, місто: Україна, Львів
Сайти: Офіційний сайт
Видавець: Artur Music CD 226 | CD 418 | Moon Records MR 5773-2
Альбоми:
    2004 - Дівчина-весна

    01 - Дівчина-весна
    02 - Странная любовь
    03 - Я у тебе одна
    04 - Натали
    05 - Травнева сповідь
    06 - Грішна любов
    07 - Закохалася
    08 - Друг
    09 - Снег
    10 - Солдат порядка (МВД посвящается...)
    11 - Перемога
    12 - Друг (дует з Ніколо)
    13 - Моя Україна
    14-15 - Дівчина-весна / Моя Україна (кліпи)

    Тривалість: 00:51:51
    Мова: українська (1, 3, 5-7, 11, 13), російська (2, 4, 8-10, 12)
    Бітрейт:~1085 кб/с
    Log EAC
    Exact Audio Copy V1.1 from 23. June 2015

    EAC extraction logfile from 10. October 2015, 0:30

    Наталія Бучинська / Дівчина-весна

    Used drive : HL-DT-STDVDRAM GH22NS50 Adapter: 1 ID: 0

    Read mode : Secure
    Utilize accurate stream : Yes
    Defeat audio cache : Yes
    Make use of C2 pointers : No

    Read offset correction : 667
    Overread into Lead-In and Lead-Out : No
    Fill up missing offset samples with silence : Yes
    Delete leading and trailing silent blocks : No
    Null samples used in CRC calculations : Yes
    Used interface : Native Win32 interface for Win NT & 2000
    Gap handling : Appended to previous track

    Used output format : User Defined Encoder
    Selected bitrate : 1024 kBit/s
    Quality : High
    Add ID3 tag : No
    Command line compressor : C:\Program Files (x86)\Exact Audio Copy\Flac\flac.exe
    Additional command line options : -V -8 -T "Genre=%genre%" -T "Artist=%artist%" -T "Title=%title%" -T "Album=%albumtitle%" -T "Date=%year%" -T "Tracknumber=%tracknr%" -T "Comment=%comment%" %source%

    TOC of the extracted CD

    Track | Start | Length | Start sector | End sector
    ---------------------------------------------------------
    1 | 0:00.00 | 3:59.09 | 0 | 17933
    2 | 3:59.09 | 3:29.74 | 17934 | 33682
    3 | 7:29.08 | 3:24.18 | 33683 | 49000
    4 | 10:53.26 | 4:28.70 | 49001 | 69170
    5 | 15:22.21 | 4:02.54 | 69171 | 87374
    6 | 19:25.00 | 3:47.58 | 87375 | 104457
    7 | 23:12.58 | 3:31.25 | 104458 | 120307
    8 | 26:44.08 | 3:59.46 | 120308 | 138278
    9 | 30:43.54 | 3:46.62 | 138279 | 155290
    10 | 34:30.41 | 4:43.69 | 155291 | 176584
    11 | 39:14.35 | 4:05.47 | 176585 | 195006
    12 | 43:20.07 | 3:59.35 | 195007 | 212966
    13 | 47:19.42 | 4:31.55 | 212967 | 233346
    14 | 54:23.22 | 18:35.29 | 244747 | 328400

    Track 1

    Filename D:\Sound\!Temp\01 - Дівчина-весна.wav

    Pre-gap length 0:00:02.00

    Peak level 96.6 %
    Extraction speed 1.2 X
    Track quality 100.0 %
    Test CRC EA469A8E
    Copy CRC EA469A8E
    Track not present in AccurateRip database
    Copy OK

    Track 2

    Filename D:\Sound\!Temp\02 - Странная любовь.wav

    Peak level 96.6 %
    Extraction speed 1.3 X
    Track quality 100.0 %
    Test CRC 99A314BA
    Copy CRC 99A314BA
    Track not present in AccurateRip database
    Copy OK

    Track 3

    Filename D:\Sound\!Temp\03 - Я у тебе одна.wav

    Peak level 96.6 %
    Extraction speed 1.4 X
    Track quality 100.0 %
    Test CRC 2C25F50D
    Copy CRC 2C25F50D
    Track not present in AccurateRip database
    Copy OK

    Track 4

    Filename D:\Sound\!Temp\04 - Натали.wav

    Peak level 96.6 %
    Extraction speed 1.3 X
    Track quality 99.9 %
    Test CRC F330A07C
    Copy CRC F330A07C
    Track not present in AccurateRip database
    Copy OK

    Track 5

    Filename D:\Sound\!Temp\05 - Травнева сповідь.wav

    Peak level 96.6 %
    Extraction speed 1.6 X
    Track quality 100.0 %
    Test CRC BA81CB4E
    Copy CRC BA81CB4E
    Track not present in AccurateRip database
    Copy OK

    Track 6

    Filename D:\Sound\!Temp\06 - Грішна любов.wav

    Peak level 96.6 %
    Extraction speed 1.7 X
    Track quality 100.0 %
    Test CRC 91345943
    Copy CRC 91345943
    Track not present in AccurateRip database
    Copy OK

    Track 7

    Filename D:\Sound\!Temp\07 - Закохалася.wav

    Peak level 96.6 %
    Extraction speed 1.7 X
    Track quality 100.0 %
    Test CRC 0E64446F
    Copy CRC 0E64446F
    Track not present in AccurateRip database
    Copy OK

    Track 8

    Filename D:\Sound\!Temp\08 - Друг.wav

    Peak level 96.6 %
    Extraction speed 1.8 X
    Track quality 100.0 %
    Test CRC 3103C961
    Copy CRC 3103C961
    Track not present in AccurateRip database
    Copy OK

    Track 9

    Filename D:\Sound\!Temp\09 - Снег.wav

    Peak level 96.6 %
    Extraction speed 1.9 X
    Track quality 100.0 %
    Test CRC 9DD81052
    Copy CRC 9DD81052
    Track not present in AccurateRip database
    Copy OK

    Track 10

    Filename D:\Sound\!Temp\10 - Солдат порядка (МВД посвящается...).wav

    Peak level 96.6 %
    Extraction speed 2.1 X
    Track quality 100.0 %
    Test CRC 583B4029
    Copy CRC 583B4029
    Track not present in AccurateRip database
    Copy OK

    Track 11

    Filename D:\Sound\!Temp\11 - Перемога.wav

    Peak level 96.6 %
    Extraction speed 2.1 X
    Track quality 100.0 %
    Test CRC DC6FFF89
    Copy CRC DC6FFF89
    Track not present in AccurateRip database
    Copy OK

    Track 12

    Filename D:\Sound\!Temp\12 - Друг (дует з Ніколо).wav

    Peak level 96.6 %
    Extraction speed 2.1 X
    Track quality 100.0 %
    Test CRC AC98F9F9
    Copy CRC AC98F9F9
    Track not present in AccurateRip database
    Copy OK

    Track 13

    Filename D:\Sound\!Temp\13 - Моя Україна.wav

    Peak level 96.6 %
    Extraction speed 2.3 X
    Track quality 100.0 %
    Test CRC 58EE0E55
    Copy CRC 58EE0E55
    Track not present in AccurateRip database
    Copy OK

    None of the tracks are present in the AccurateRip database

    No errors occurred

    End of status report

    ---- CUETools DB Plugin V2.1.6

    [CTDB TOCID: 52G2ilkzEeIpjo75_mqSPvyQN.4-] disk not present in database
    Submit result: 52G2ilkzEeIpjo75_mqSPvyQN.4- has been uploaded

    ==== Log checksum 79D5EA566A02B70B8CAB1ACC5CDFA946404B826384E1F51851F0B5DC2173C176 ====
    .cue
    REM GENRE Pop
    REM DATE 2004
    REM DISCID B5111A0E
    REM COMMENT "ExactAudioCopy v1.1"
    PERFORMER "Наталія Бучинська"
    TITLE "Дівчина-весна"
    FILE "01 - Дівчина-весна.wav" WAVE
    TRACK 01 AUDIO
    TITLE "Дівчина-весна"
    PERFORMER "Наталія Бучинська"
    FLAGS DCP
    INDEX 01 00:00:00
    FILE "02 - Странная любовь.wav" WAVE
    TRACK 02 AUDIO
    TITLE "Странная любовь"
    PERFORMER "Наталія Бучинська"
    FLAGS DCP
    INDEX 01 00:00:00
    FILE "03 - Я у тебе одна.wav" WAVE
    TRACK 03 AUDIO
    TITLE "Я у тебе одна"
    PERFORMER "Наталія Бучинська"
    FLAGS DCP
    INDEX 01 00:00:00
    FILE "04 - Натали.wav" WAVE
    TRACK 04 AUDIO
    TITLE "Натали"
    PERFORMER "Наталія Бучинська"
    FLAGS DCP
    INDEX 01 00:00:00
    FILE "05 - Травнева сповідь.wav" WAVE
    TRACK 05 AUDIO
    TITLE "Травнева сповідь"
    PERFORMER "Наталія Бучинська"
    FLAGS DCP
    INDEX 01 00:00:00
    FILE "06 - Грішна любов.wav" WAVE
    TRACK 06 AUDIO
    TITLE "Грішна любов"
    PERFORMER "Наталія Бучинська"
    FLAGS DCP
    INDEX 01 00:00:00
    FILE "07 - Закохалася.wav" WAVE
    TRACK 07 AUDIO
    TITLE "Закохалася"
    PERFORMER "Наталія Бучинська"
    FLAGS DCP
    INDEX 01 00:00:00
    FILE "08 - Друг.wav" WAVE
    TRACK 08 AUDIO
    TITLE "Друг"
    PERFORMER "Наталія Бучинська"
    FLAGS DCP
    INDEX 01 00:00:00
    FILE "09 - Снег.wav" WAVE
    TRACK 09 AUDIO
    TITLE "Снег"
    PERFORMER "Наталія Бучинська"
    FLAGS DCP
    INDEX 01 00:00:00
    FILE "10 - Солдат порядка (МВД посвящается...).wav" WAVE
    TRACK 10 AUDIO
    TITLE "Солдат порядка (МВД посвящается...)"
    PERFORMER "Наталія Бучинська"
    FLAGS DCP
    INDEX 01 00:00:00
    FILE "11 - Перемога.wav" WAVE
    TRACK 11 AUDIO
    TITLE "Перемога"
    PERFORMER "Наталія Бучинська"
    FLAGS DCP
    INDEX 01 00:00:00
    FILE "12 - Друг (дует з Ніколо).wav" WAVE
    TRACK 12 AUDIO
    TITLE "Друг (дует з Ніколо)"
    PERFORMER "Наталія Бучинська"
    FLAGS DCP
    INDEX 01 00:00:00
    FILE "13 - Моя Україна.wav" WAVE
    TRACK 13 AUDIO
    TITLE "Моя Україна"
    PERFORMER "Наталія Бучинська"
    FLAGS DCP
    INDEX 01 00:00:00
    2008 - Душа

    01 - Просто
    02 - Душа
    03 - Высоко
    04 - Я тебя люблю
    05 - Белая лилия
    06 - Туманы
    07 - А я-то думала
    08 - Выше неба
    09 - Поздравляю
    10 - Душа (ремикс)
    11 - Душа (кліп)
    12 - Просто (кліп)

    Тривалість: 00:37:57
    Мова: російська (1-10)
    Бітрейт:~1052 кб/с
    Log EAC
    Exact Audio Copy V1.1 from 23. June 2015

    EAC extraction logfile from 11. October 2015, 12:25

    Наталія Бучинська / Душа

    Used drive : HL-DT-STDVDRAM GH22NS50 Adapter: 1 ID: 0

    Read mode : Secure
    Utilize accurate stream : Yes
    Defeat audio cache : Yes
    Make use of C2 pointers : No

    Read offset correction : 667
    Overread into Lead-In and Lead-Out : No
    Fill up missing offset samples with silence : Yes
    Delete leading and trailing silent blocks : No
    Null samples used in CRC calculations : Yes
    Used interface : Native Win32 interface for Win NT & 2000
    Gap handling : Appended to previous track

    Used output format : User Defined Encoder
    Selected bitrate : 1024 kBit/s
    Quality : High
    Add ID3 tag : No
    Command line compressor : C:\Program Files (x86)\Exact Audio Copy\Flac\flac.exe
    Additional command line options : -V -8 -T "Genre=%genre%" -T "Artist=%artist%" -T "Title=%title%" -T "Album=%albumtitle%" -T "Date=%year%" -T "Tracknumber=%tracknr%" -T "Comment=%comment%" %source%

    TOC of the extracted CD

    Track | Start | Length | Start sector | End sector
    ---------------------------------------------------------
    1 | 0:00.00 | 3:14.23 | 0 | 14572
    2 | 3:14.23 | 3:52.09 | 14573 | 31981
    3 | 7:06.32 | 3:14.74 | 31982 | 46605
    4 | 10:21.31 | 3:22.49 | 46606 | 61804
    5 | 13:44.05 | 4:27.12 | 61805 | 81841
    6 | 18:11.17 | 3:36.46 | 81842 | 98087
    7 | 21:47.63 | 4:14.21 | 98088 | 117158
    8 | 26:02.09 | 3:34.57 | 117159 | 133265
    9 | 29:36.66 | 4:16.63 | 133266 | 152528
    10 | 33:53.54 | 4:03.31 | 152529 | 170784
    11 | 40:29.10 | 14:59.34 | 182185 | 249643

    Track 1

    Filename D:\Sound\!Temp\01 - Просто.wav

    Pre-gap length 0:00:02.00

    Peak level 94.4 %
    Extraction speed 1.0 X
    Track quality 100.0 %
    Test CRC 66B55879
    Copy CRC 66B55879
    Track not present in AccurateRip database
    Copy OK

    Track 2

    Filename D:\Sound\!Temp\02 - Душа.wav

    Peak level 90.7 %
    Extraction speed 1.1 X
    Track quality 100.0 %
    Test CRC 9B6D3636
    Copy CRC 9B6D3636
    Track not present in AccurateRip database
    Copy OK

    Track 3

    Filename D:\Sound\!Temp\03 - Высоко.wav

    Peak level 90.1 %
    Extraction speed 1.2 X
    Track quality 100.0 %
    Test CRC 6177AAA0
    Copy CRC 6177AAA0
    Track not present in AccurateRip database
    Copy OK

    Track 4

    Filename D:\Sound\!Temp\04 - Я тебя люблю.wav

    Peak level 94.4 %
    Extraction speed 1.3 X
    Track quality 100.0 %
    Test CRC 0AB1283D
    Copy CRC 0AB1283D
    Track not present in AccurateRip database
    Copy OK

    Track 5

    Filename D:\Sound\!Temp\05 - Белая лилия.wav

    Peak level 94.4 %
    Extraction speed 1.4 X
    Track quality 100.0 %
    Test CRC 99A7C94C
    Copy CRC 99A7C94C
    Track not present in AccurateRip database
    Copy OK

    Track 6

    Filename D:\Sound\!Temp\06 - Туманы.wav

    Peak level 94.3 %
    Extraction speed 1.5 X
    Track quality 100.0 %
    Test CRC A56BF6E0
    Copy CRC A56BF6E0
    Track not present in AccurateRip database
    Copy OK

    Track 7

    Filename D:\Sound\!Temp\07 - А я-то думала.wav

    Peak level 90.4 %
    Extraction speed 1.4 X
    Track quality 99.9 %
    Test CRC 301D26B0
    Copy CRC 301D26B0
    Track not present in AccurateRip database
    Copy OK

    Track 8

    Filename D:\Sound\!Temp\08 - Выше неба.wav

    Peak level 94.3 %
    Extraction speed 1.4 X
    Track quality 99.9 %
    Test CRC C6FFA78A
    Copy CRC C6FFA78A
    Track not present in AccurateRip database
    Copy OK

    Track 9

    Filename D:\Sound\!Temp\09 - Поздравляю.wav

    Peak level 94.4 %
    Extraction speed 1.7 X
    Track quality 100.0 %
    Test CRC E4EE3D64
    Copy CRC E4EE3D64
    Track not present in AccurateRip database
    Copy OK

    Track 10

    Filename D:\Sound\!Temp\10 - Душа (ремикс).wav

    Peak level 94.3 %
    Extraction speed 1.8 X
    Track quality 100.0 %
    Test CRC D2FE211A
    Copy CRC D2FE211A
    Track not present in AccurateRip database
    Copy OK

    None of the tracks are present in the AccurateRip database

    No errors occurred

    End of status report

    ---- CUETools DB Plugin V2.1.6

    [CTDB TOCID: dmUxsweEJx6J5jiyo5.SyoD67uE-] disk not present in database
    Submit result: dmUxsweEJx6J5jiyo5.SyoD67uE- has been uploaded

    ==== Log checksum 3D96C3E3E4A4AB378ECEF0A0FED18360DCF58ED0CB822D73114392FAE1445F85 ====
    .cue
    REM GENRE Pop
    REM DATE 2008
    REM DISCID 900D000B
    REM COMMENT "ExactAudioCopy v1.1"
    PERFORMER "Наталія Бучинська"
    TITLE "Душа"
    FILE "01 - Просто.wav" WAVE
    TRACK 01 AUDIO
    TITLE "Просто"
    PERFORMER "Наталія Бучинська"
    FLAGS DCP
    INDEX 01 00:00:00
    FILE "02 - Душа.wav" WAVE
    TRACK 02 AUDIO
    TITLE "Душа"
    PERFORMER "Наталія Бучинська"
    FLAGS DCP
    INDEX 01 00:00:00
    FILE "03 - Высоко.wav" WAVE
    TRACK 03 AUDIO
    TITLE "Высоко"
    PERFORMER "Наталія Бучинська"
    FLAGS DCP
    INDEX 01 00:00:00
    FILE "04 - Я тебя люблю.wav" WAVE
    TRACK 04 AUDIO
    TITLE "Я тебя люблю"
    PERFORMER "Наталія Бучинська"
    FLAGS DCP
    INDEX 01 00:00:00
    FILE "05 - Белая лилия.wav" WAVE
    TRACK 05 AUDIO
    TITLE "Белая лилия"
    PERFORMER "Наталія Бучинська"
    FLAGS DCP
    INDEX 01 00:00:00
    FILE "06 - Туманы.wav" WAVE
    TRACK 06 AUDIO
    TITLE "Туманы"
    PERFORMER "Наталія Бучинська"
    FLAGS DCP
    INDEX 01 00:00:00
    FILE "07 - А я-то думала.wav" WAVE
    TRACK 07 AUDIO
    TITLE "А я-то думала"
    PERFORMER "Наталія Бучинська"
    FLAGS DCP
    INDEX 01 00:00:00
    FILE "08 - Выше неба.wav" WAVE
    TRACK 08 AUDIO
    TITLE "Выше неба"
    PERFORMER "Наталія Бучинська"
    FLAGS DCP
    INDEX 01 00:00:00
    FILE "09 - Поздравляю.wav" WAVE
    TRACK 09 AUDIO
    TITLE "Поздравляю"
    PERFORMER "Наталія Бучинська"
    FLAGS DCP
    INDEX 01 00:00:00
    FILE "10 - Душа (ремикс).wav" WAVE
    TRACK 10 AUDIO
    TITLE "Душа (ремикс)"
    PERFORMER "Наталія Бучинська"
    FLAGS DCP
    INDEX 01 00:00:00
    2016 - Все для тебе

    01 - Все для тебе
    02 - Алло, кохання
    03 - Вода
    04 - Кохання-золото
    05 - Ріка-печаль
    06 - Не питай
    07 - Цілуй
    08 - Материнська любов
    09 - Я не хочу війни
    10 - Мова єднання
    11 - Карпати
    12 - Ми українці!

    Тривалість: 00:45:03
    Мова: українська (1-12)
    Бітрейт:~1067 кб/с
    Log EAC
    Exact Audio Copy V1.2 from 12. August 2016

    EAC extraction logfile from 14. October 2016, 11:34

    Наталія Бучинська / Все для тебе

    Used drive : SONY CD-RW CRX230ED Adapter: 1 ID: 1

    Read mode : Secure
    Utilize accurate stream : Yes
    Defeat audio cache : Yes
    Make use of C2 pointers : No

    Read offset correction : 6
    Overread into Lead-In and Lead-Out : No
    Fill up missing offset samples with silence : Yes
    Delete leading and trailing silent blocks : No
    Null samples used in CRC calculations : Yes
    Used interface : Native Win32 interface for Win NT & 2000
    Gap handling : Appended to previous track

    Used output format : User Defined Encoder
    Selected bitrate : 1024 kBit/s
    Quality : High
    Add ID3 tag : No
    Command line compressor : C:\Program Files (x86)\Exact Audio Copy\Flac\flac.exe
    Additional command line options : -V -8 -T "Genre=%genre%" -T "Artist=%artist%" -T "Title=%title%" -T "Album=%albumtitle%" -T "Date=%year%" -T "Tracknumber=%tracknr%" -T "Comment=%comment%" %source%

    TOC of the extracted CD

    Track | Start | Length | Start sector | End sector
    ---------------------------------------------------------
    1 | 0:00.00 | 3:39.38 | 0 | 16462
    2 | 3:39.38 | 3:23.36 | 16463 | 31723
    3 | 7:02.74 | 3:35.38 | 31724 | 47886
    4 | 10:38.37 | 3:30.74 | 47887 | 63710
    5 | 14:09.36 | 4:18.54 | 63711 | 83114
    6 | 18:28.15 | 4:09.46 | 83115 | 101835
    7 | 22:37.61 | 3:19.35 | 101836 | 116795
    8 | 25:57.21 | 4:34.51 | 116796 | 137396
    9 | 30:31.72 | 4:01.09 | 137397 | 155480
    10 | 34:33.06 | 3:03.38 | 155481 | 169243
    11 | 37:36.44 | 3:31.38 | 169244 | 185106
    12 | 41:08.07 | 3:55.47 | 185107 | 202778

    Track 1

    Filename D:\Sound\!Temp\01 - Все для тебе.wav

    Pre-gap length 0:00:02.00

    Peak level 96.0 %
    Extraction speed 5.0 X
    Track quality 100.0 %
    Test CRC A8554D47
    Copy CRC A8554D47
    Track not present in AccurateRip database
    Copy OK

    Track 2

    Filename D:\Sound\!Temp\02 - Алло, кохання.wav

    Peak level 97.7 %
    Extraction speed 4.3 X
    Track quality 99.9 %
    Test CRC D0551FB2
    Copy CRC D0551FB2
    Track not present in AccurateRip database
    Copy OK

    Track 3

    Filename D:\Sound\!Temp\03 - Вода.wav

    Peak level 98.8 %
    Extraction speed 6.0 X
    Track quality 100.0 %
    Test CRC CF88F39B
    Copy CRC CF88F39B
    Track not present in AccurateRip database
    Copy OK

    Track 4

    Filename D:\Sound\!Temp\04 - Кохання-золото.wav

    Peak level 96.7 %
    Extraction speed 6.4 X
    Track quality 100.0 %
    Test CRC F58407AF
    Copy CRC F58407AF
    Track not present in AccurateRip database
    Copy OK

    Track 5

    Filename D:\Sound\!Temp\05 - Ріка-печаль.wav

    Peak level 97.8 %
    Extraction speed 6.9 X
    Track quality 100.0 %
    Test CRC 1625D81E
    Copy CRC 1625D81E
    Track not present in AccurateRip database
    Copy OK

    Track 6

    Filename D:\Sound\!Temp\06 - Не питай.wav

    Peak level 98.8 %
    Extraction speed 7.4 X
    Track quality 100.0 %
    Test CRC FF1D744E
    Copy CRC FF1D744E
    Track not present in AccurateRip database
    Copy OK

    Track 7

    Filename D:\Sound\!Temp\07 - Цілуй.wav

    Peak level 98.8 %
    Extraction speed 7.5 X
    Track quality 100.0 %
    Test CRC F69AE0BE
    Copy CRC F69AE0BE
    Track not present in AccurateRip database
    Copy OK

    Track 8

    Filename D:\Sound\!Temp\08 - Материнська любов.wav

    Peak level 96.0 %
    Extraction speed 8.1 X
    Track quality 100.0 %
    Test CRC E2D518B5
    Copy CRC E2D518B5
    Track not present in AccurateRip database
    Copy OK

    Track 9

    Filename D:\Sound\!Temp\09 - Я не хочу війни.wav

    Peak level 98.8 %
    Extraction speed 8.3 X
    Track quality 100.0 %
    Test CRC 6DA2644A
    Copy CRC 6DA2644A
    Track not present in AccurateRip database
    Copy OK

    Track 10

    Filename D:\Sound\!Temp\10 - Мова єднання.wav

    Peak level 98.9 %
    Extraction speed 8.3 X
    Track quality 100.0 %
    Test CRC 28A90625
    Copy CRC 28A90625
    Track not present in AccurateRip database
    Copy OK

    Track 11

    Filename D:\Sound\!Temp\11 - Карпати.wav

    Peak level 97.8 %
    Extraction speed 6.7 X
    Track quality 99.9 %
    Test CRC 574494A7
    Copy CRC 574494A7
    Track not present in AccurateRip database
    Copy OK

    Track 12

    Filename D:\Sound\!Temp\12 - Ми українці!.wav

    Peak level 95.6 %
    Extraction speed 6.8 X
    Track quality 100.0 %
    Test CRC 1B3B04DE
    Copy CRC 1B3B04DE
    Track not present in AccurateRip database
    Copy OK

    None of the tracks are present in the AccurateRip database

    No errors occurred

    End of status report

    ---- CUETools DB Plugin V2.1.6

    [CTDB TOCID: zDRRQyGfFVjlICWshXQTp6gEETA-] disk not present in database
    Submit result: zDRRQyGfFVjlICWshXQTp6gEETA- has been uploaded

    ==== Log checksum CA91FE10BCDD166256D6063B1E557E8BC56CA4B44EDA04A864D213D8A7154C8F ====
    .cue
    REM GENRE Pop
    REM DATE 2016
    REM DISCID 8D0A8F0C
    REM COMMENT "ExactAudioCopy v1.2"
    PERFORMER "Наталія Бучинська"
    TITLE "Все для тебе"
    REM COMPOSER ""
    FILE "01 - Все для тебе.wav" WAVE
    TRACK 01 AUDIO
    TITLE "Все для тебе"
    PERFORMER "Наталія Бучинська"
    REM COMPOSER ""
    INDEX 01 00:00:00
    FILE "02 - Алло, кохання.wav" WAVE
    TRACK 02 AUDIO
    TITLE "Алло, кохання"
    PERFORMER "Наталія Бучинська"
    REM COMPOSER ""
    INDEX 01 00:00:00
    FILE "03 - Вода.wav" WAVE
    TRACK 03 AUDIO
    TITLE "Вода"
    PERFORMER "Наталія Бучинська"
    REM COMPOSER ""
    INDEX 01 00:00:00
    FILE "04 - Кохання-золото.wav" WAVE
    TRACK 04 AUDIO
    TITLE "Кохання-золото"
    PERFORMER "Наталія Бучинська"
    REM COMPOSER ""
    INDEX 01 00:00:00
    FILE "05 - Ріка-печаль.wav" WAVE
    TRACK 05 AUDIO
    TITLE "Ріка-печаль"
    PERFORMER "Наталія Бучинська"
    REM COMPOSER ""
    INDEX 01 00:00:00
    FILE "06 - Не питай.wav" WAVE
    TRACK 06 AUDIO
    TITLE "Не питай"
    PERFORMER "Наталія Бучинська"
    REM COMPOSER ""
    INDEX 01 00:00:00
    FILE "07 - Цілуй.wav" WAVE
    TRACK 07 AUDIO
    TITLE "Цілуй"
    PERFORMER "Наталія Бучинська"
    REM COMPOSER ""
    INDEX 01 00:00:00
    FILE "08 - Материнська любов.wav" WAVE
    TRACK 08 AUDIO
    TITLE "Материнська любов"
    PERFORMER "Наталія Бучинська"
    REM COMPOSER ""
    INDEX 01 00:00:00
    FILE "09 - Я не хочу війни.wav" WAVE
    TRACK 09 AUDIO
    TITLE "Я не хочу війни"
    PERFORMER "Наталія Бучинська"
    REM COMPOSER ""
    INDEX 01 00:00:00
    FILE "10 - Мова єднання.wav" WAVE
    TRACK 10 AUDIO
    TITLE "Мова єднання"
    PERFORMER "Наталія Бучинська"
    REM COMPOSER ""
    INDEX 01 00:00:00
    FILE "11 - Карпати.wav" WAVE
    TRACK 11 AUDIO
    TITLE "Карпати"
    PERFORMER "Наталія Бучинська"
    REM COMPOSER ""
    INDEX 01 00:00:00
    FILE "12 - Ми українці!.wav" WAVE
    TRACK 12 AUDIO
    TITLE "Ми українці!"
    PERFORMER "Наталія Бучинська"
    REM COMPOSER ""
    INDEX 01 00:00:00

Тривалість: 02:14:52
Мова: українська, російська
Аудіо-кодек: FLAC (tracks+.cue)
Бітрейт: ~1052-1085 кб/с
Джерело: CD
Додаткова інформація:
Наталія Любомирівна Бучинська (28 квітня 1977, Львів) — українська співачка, заслужена артистка України (1999).

В 1998 році — приїзджає до Києва на запрошення Державного ансамблю пісні і танцю Міністерства внутрішніх справ України, вона проходить прослуховування і стає солісткою ансамблю. Саме тоді й зустрічає свого майбутнього директора Леоніда Радченка, який став не тільки її творчим наставником, а й другом по життю. У цьому ж році її пісня «Послухай, шелестять дощі…» стала «Піснею року».

В 2001 — виходить заміж за військово-службовця Олександра Якушева, а вже в наступному 2002 році — народжується дочка Катерина.

Ставши солісткою ансамблю, Наталія отримала військове звання прапорщика внутрішніх військ МВС України і прийняла присягу «На вірність Україні», а 2004 р. закінчила Київську академію внутрішніх справ у званні майора міліції.

Брала участь у «Пісенному Вернісажі» (1998–2002), їздила з великою концертною програмою в Косово

2004 рік — виходить альбом «Дівчина весна».
2005 — закінчила Київський університет культури мистецтв за напрямком режисура;
2006 — з Д. Гордоном зняла кліп «Первая любовь»
2007 — Зняла, в новому образі, перший російськомовний кліп на пісню «Душа»;
2008 — Вийшов диск «Душа» куди і ввійшов однойменний кліп «Душа» та кліп «Просто».

Наталія Бучинська стала наймолодшою народною артисткою України. Вона дала понад 800 концертів. У її репертуарі понад 160 пісень. Співачка виконує пісні українською, російською, вірменською, англійською та французькою мовами. У числі авторів пісень — Ніколо, Юрій Рибчинський, Руслан Квінта, Володимир Матецький, Любаша та інші. До речі, спеціально для нового альбому Любаша вперше написала українську пісню «Крила».


Якщо Ви справді бажаєте підтримати українське - після прослуховування, якщо музика вам сподобалась, придбайте ліцензійний диск. Підтримаймо вітчизняних виконавців!


Золотий реліз (завантажене не впливає на рейтинг)
 Трекер:    Зареєстрований   

Завантажити / скачати українську музику



відео для новачків



 Зареєстрований:   2016-10-15 08:21
 Розмір:   1.59 GB 
 Оцінка музики:   9/10 (Голосів: 8)
   
igoryek 
Новенький


З нами з: 17.10.14
Востаннє: 27.11.16
Повідомлень: 16

2015-10-11 12:27  
кажіть, що де коли перероблювати...
ssTAss 
Модератор музики


З нами з: 05.07.08
Востаннє: 05.12.16
Повідомлень: 10941

2015-10-11 13:28  
igoryek написано:
кажіть, що де коли перероблювати...

все)
релізи можна створювати виключно через майстер (в правому верхньому куті сторінки "Додати торрент")

ssTAss 
Модератор музики


З нами з: 05.07.08
Востаннє: 05.12.16
Повідомлень: 10941

2015-10-11 16:41  
igoryek написано:
Мова: українська

і тільки?
до кожного альбому дописати мову (потреково) і бітрейт
і тут теж межі
igoryek написано:
Бітрейт: lossless

igoryek 
Новенький


З нами з: 17.10.14
Востаннє: 27.11.16
Повідомлень: 16

2015-10-11 18:35  
Цитата:
і тільки?
до кожного альбому дописати мову (потреково) і бітрейт
і тут теж межі

так нормально?


Цитата:
Наталія Бучинська - Дискографія (2 альбоми) (2004-2008) [FLAC] | Pop

в неї заявлено 3 альбоми.
Дискографія:
«Про те, чого не вимовиш словами…»
«Дівчина – весна» - 2004 рік.
«Душа» - 2008 рік.

тому я і вказав назви тільки двох.. як на мене це не "дискографія", а "колекція" тоді.

П.С. дякую за допомогу.

ssTAss 
Модератор музики


З нами з: 05.07.08
Востаннє: 05.12.16
Повідомлень: 10941

2015-10-12 00:32  
igoryek написано:

в неї заявлено 3 альбоми.
Дискографія:
«Про те, чого не вимовиш словами…»

якщо не помиляюсь, то він виходив тільки на касеті

ярий тверезенник 
VIP


З нами з: 29.01.12
Востаннє: 05.12.16
Повідомлень: 1592

2015-10-14 14:00  
колись в армії вона нам співала і гуляла
lpershyi 
Попереджень: 2
Попереджень: 2 


З нами з: 04.01.11
Востаннє: 30.11.16
Повідомлень: 2622

2015-10-14 14:23  
igoryek написано:
російська
п'ятнадцять пісень іноземною російською, як за таке можна ставити золото?
ярий тверезенник 
VIP


З нами з: 29.01.12
Востаннє: 05.12.16
Повідомлень: 1592

2015-10-15 12:16  
золото не за кацапські пісні а за FLAC
igoryek 
Новенький


З нами з: 17.10.14
Востаннє: 27.11.16
Повідомлень: 16

2015-10-17 01:07  
я забув вшити обкладинки у файли(
igoryek 
Новенький


З нами з: 17.10.14
Востаннє: 27.11.16
Повідомлень: 16

2016-10-01 15:58  
я так розумію вийшов новий альбом - "Все для тебе" 2016
якось треба буде додати.
якщо в цій роздачі є якісь недоліки - кажіть, буду виправляти. я поки що знаю про один такий - немає обкладинки у файлах.

igoryek 
Новенький


З нами з: 17.10.14
Востаннє: 27.11.16
Повідомлень: 16

2016-10-15 08:22  
додав "2016 - Все для тебе"
Ваш часовий пояс: GMT + 2 Години

Нова тема   Відповісти