Завантажити та скачати торренти українською


Моя Русалка, Моя Лореляй (2013) Rus | sub Ukr

Нові коментарі

Нова тема   Відповісти
Автор Повідомлення
xfsthe 
Оцифрування книг Гуртом
Оцифрування книг Гуртом


З нами з: 13.02.11
Востаннє: 07.12.16
Повідомлень: 279

2015-10-10 13:18  
Моя Русалка, Моя Лореляй (2013) Rus | sub Ukr

Моя Русалка, Моя Лореляй (2013) Rus | sub Ukr


Жанр: комедія, мелодрама
Країна: Україна, Росія



Кінокомпанія: 435 Films Distribution, Творче об'єднання "Хронограф", кінокомпанія "Вікторія", "Перше творче об'єднання"
Режисер: Нана Джорджадзе
Продюсери: Ігор Букрєєв, Валерій Калмиков, Павло Поляков
Кошторис: 9 720 000 грн
Актори: Катерина Молчанова, Олег Скрипка, Євген Риба, Михайло Штейншнайдер, В'ячеслав Хахалкін, Олександр Онищенко та інші.

Сюжет:
Дія фільму відбувається в радянський час. 14 річний юнак Федір (Євген Риба) закохується у 18-річну руду акторку Нюрку (Катерина Молчанова). Він любить кататися на своєму велосипеді, вона мріє про роль Анжеліки у виставі «Анжеліка і король». Море, сонце, романтичні заходи сонця — здавалося б: ну що спільного між акторкою і простим сільським хлопцем? Але кохання поєднує їх.


Тривалість: 01:13:37
Якість:
Відео:
кодек:
розмір кадру: 720 х 400
бітрейт: 1 909 кб/с

Аудіо:
мова: російська
переклад: оригінал
кодек: MP3
бітрейт: 192 кб/с

Субтитри:
мова: українська
тип: вшиті
MediaInfo

General
Complete name : /media/xfsthe/media/українські 2013-2014/Моя Русалка, Моя Лореляй (2013) [msk] sub[ukr] .avi
Format : AVI
Format/Info : Audio Video Interleave
File size : 1.09 GiB
Duration : 1h 13mn
Overall bit rate : 2 111 Kbps
Writing application : VirtualDubMod 1.5.10.3 | www.virtualdub-fr.org || (build 2550/release)
Writing library : VirtualDubMod build 2550/release

Video
ID : 0
Format : MPEG-4 Visual
Format profile : Advanced [email protected]
Format settings, BVOP : 1
Format settings, QPel : No
Format settings, GMC : No warppoints
Format settings, Matrix : Default (MPEG)
Codec ID :
Codec ID/Hint :
Duration : 1h 13mn
Bit rate : 1 909 Kbps
Width : 720 pixels
Height : 400 pixels
Display aspect ratio : 16:9
Frame rate : 25.000 fps
Color space : YUV
Chroma subsampling : 4:2:0
Bit depth : 8 bits
Scan type : Progressive
Compression mode : Lossy
Bits/(Pixel*Frame) : 0.265
Stream size : 1 005 MiB (90%)
Writing library : 1.2.1 (UTC 2008-12-04)

Audio
ID : 1
Format : MPEG Audio
Format version : Version 1
Format profile : Layer 3
Mode : Joint stereo
Codec ID : 55
Codec ID/Hint : MP3
Duration : 1h 13mn
Bit rate mode : Constant
Bit rate : 192 Kbps
Channel(s) : 2 channels
Sampling rate : 48.0 KHz
Compression mode : Lossy
Stream size : 101 MiB (9%)
Alignment : Aligned on interleaves
Interleave, duration : 40 ms (1.00 video frame)
Interleave, preload duration : 504 ms
Writing library : LAME3.99r
Encoding settings : -m j -V 4 -q 2 -lowpass 18.6 -b 192
Трейлер


Світлини






Джерело:
Особиста оцінка: 8 - мені сподобалося


Золотий реліз (завантажене не впливає на рейтинг)
 Трекер:    Зареєстрований   

Завантажити / скачати український фільм



відео для новачків



 Зареєстрований:   2015-10-10 13:18
 Розмір:   1.09 GB 
 Оцінка фільму:   5.2/10 (Голосів: 12)
   
omm 
Відео Гуртом - фільмокрай
Відео Гуртом - фільмокрай


З нами з: 12.06.12
Востаннє: 07.12.16
Повідомлень: 2066

2015-10-10 13:25  
xfsthe написано:
Моя Русалка, Моя Лореляй (2013) Rus | sub Ukr

Rus | sub Ukr - так краще

xfsthe написано:
Кошторис: 9 720 000 ₴

напишіть буквами

vovchyck 
Свій


З нами з: 22.02.09
Востаннє: 07.12.16
Повідомлень: 145

2015-10-10 20:41  
Шо за херня, хто за тим дивиться
omm 
Відео Гуртом - фільмокрай
Відео Гуртом - фільмокрай


З нами з: 12.06.12
Востаннє: 07.12.16
Повідомлень: 2066

2015-10-11 15:36  
vovchyck написано:
Шо за херня, хто за тим дивиться

що поробиш, за правилами проходить.. Хоча я теж проти російськомовних фільмів на толоці

lpershyi 
Попереджень: 2
Попереджень: 2 


З нами з: 04.01.11
Востаннє: 30.11.16
Повідомлень: 2622

2015-10-11 21:07  
xfsthe написано:
мова: російська
це кіно мало бути українською, знову обманули Міністерство культури, адже дозволи були на доріжку українську
TSpell 
Свій


З нами з: 13.12.14
Востаннє: 05.12.16
Повідомлень: 127

2016-01-29 19:40  
фе, навіть вантажити не буду!
Ваш часовий пояс: GMT + 2 Години

Нова тема   Відповісти