Завантажити та скачати торренти українською


Останній володар стихій / The Last Airbender (2010) 720p Ukr/Eng | Sub Ukr/Eng

Нові коментарі

Нова тема   Відповісти
Автор Повідомлення
braveboy 
Відео Гуртом - команда HD
Відео Гуртом - команда HD


З нами з: 15.06.10
Востаннє: 29.10.16
Повідомлень: 958

2015-10-10 02:21  

Останній володар стихій / The Last Airbender (2010) 720p Ukr/Eng | Sub Ukr/Eng


Останній володар стихій / The Last Airbender (2010) 720p Ukr/Eng | Sub Ukr/Eng


Жанр: бойовик, фентезі, пригоди, сімейний
Країна: США


Кінокомпанія: Paramount Pictures
Режисер: М. Найт Шьямалан
Актори: Ноа Рінгер, Дев Патель, Нікола Пельтц, Джексон Ретбоун, Шон Тоуб, Аасиф Мандві, Кліфф Кертіс, Сейшелл Гебріел, Кетрін Хотон, Френсіс Гуінан

Сюжет:
Повітряні кочівники, Плем'я Води, Царство Землі і Народ Вогню. Чотири нації були пов'язані долею, коли Народ Вогню почав жорстоку війну проти всіх. Минуло сто років без надії щось змінити в цьому світі. Народ Вогню майже близький до перемоги у війні. Опинившись між боротьбою і хоробрістю, юний Аанг розуміє, що він - Аватар, який володіє силою повелівати чотирма стихіями, і те, що тільки він може повернути баланс і відновити мир на землі. Разом з юною володаркою води Катару та її братом Сокко він відправляється в подорож.


Тривалість: 01:43:13
Якість: 720p
Відео:
кодек:
розмір кадру: 1280 х 544
бітрейт: 5274 кб/с

Аудіо # 1:
мова: українська
переклад: професійний дубльований
кодек: 5.1
бітрейт: 448 кб/с

Аудіо # 2:
мова: англійська
переклад: оригінал
кодек: 5.1
бітрейт: 1509 кб/с

Джерело озвучення:

Субтитри:
мова: українська
тип: програмні (м'які)
формат: *.srt

Субтитри:
мова: англійська
тип: програмні (м'які)
формат: *.srt
MediaInfo
Video
ID : 1
Format : AVC
Format/Info : Advanced Video Codec
Format profile : [email protected]
Format settings, CABAC : Yes
Format settings, ReFrames : 6 frames
Codec ID : V_MPEG4/ISO/AVC
Duration : 1h 43mn
Bit rate : 5 274 Kbps
Width : 1 280 pixels
Height : 544 pixels
Display aspect ratio : 2.35:1
Frame rate mode : Constant
Frame rate : 23.976 fps
Color space : YUV
Chroma subsampling : 4:2:0
Bit depth : 8 bits
Scan type : Progressive
Bits/(Pixel*Frame) : 0.316
Stream size : 3.80 GiB (71%)
Title : The Last Airbender (2010) 720p
Language : English
Default : Yes
Forced : No
DURATION : 01:43:13.182000000
NUMBER_OF_FRAMES : 148488
NUMBER_OF_BYTES : 4194420837
_STATISTICS_WRITING_APP : mkvmerge v7.8.0 ('River Man') 64bit built on Mar 27 2015 16:31:37
_STATISTICS_WRITING_DATE_UTC : 2015-10-09 23:58:34
_STATISTICS_TAGS : BPS DURATION NUMBER_OF_FRAMES NUMBER_OF_BYTES

Audio #1
ID : 2
Format : AC-3
Format/Info : Audio Coding 3
Mode extension : CM (complete main)
Format settings, Endianness : Big
Codec ID : A_AC3
Duration : 1h 43mn
Bit rate mode : Constant
Bit rate : 448 Kbps
Channel(s) : 6 channels
Channel positions : Front: L C R, Side: L R, LFE
Sampling rate : 48.0 KHz
Bit depth : 16 bits
Compression mode : Lossy
Stream size : 331 MiB (6%)
Title : 5.1 @ 448 Kbps [Дубляж, R5]
Language : Ukrainian
Default : Yes
Forced : No

Audio #2
ID : 3
Format :
Format/Info : Digital Theater Systems
Mode : 16
Format settings, Endianness : Big
Codec ID : A_DTS
Duration : 1h 43mn
Bit rate mode : Constant
Bit rate : 1 509 Kbps
Channel(s) : 6 channels
Channel positions : Front: L C R, Side: L R, LFE
Sampling rate : 48.0 KHz
Bit depth : 24 bits
Compression mode : Lossy
Stream size : 1.09 GiB (20%)
Title : 5.1 @ 1536 Kbps
Language : English
Default : No
Forced : No

Text #1
ID : 4
Format : UTF-8
Codec ID : S_TEXT/UTF8
Codec ID/Info : UTF-8 Plain Text
Title : Full
Language : Ukrainian
Default : No
Forced : No

Text #2
ID : 5
Format : UTF-8
Codec ID : S_TEXT/UTF8
Codec ID/Info : UTF-8 Plain Text
Title : Full
Language : English
Default : No
Forced : No

Text #3
ID : 6
Format : UTF-8
Codec ID : S_TEXT/UTF8
Codec ID/Info : UTF-8 Plain Text
Title : SDH
Language : English
Default : No
Forced : No

Menu
00:00:00.000 : en:00:00:00.000
00:11:45.371 : en:00:11:45.371
00:18:07.753 : en:00:18:07.753
00:26:34.635 : en:00:26:34.635
00:38:04.991 : en:00:38:04.991
00:51:10.985 : en:00:51:10.985
00:59:56.968 : en:00:59:56.968
01:09:05.725 : en:01:09:05.725
01:18:46.096 : en:01:18:46.096
01:28:10.494 : en:01:28:10.494
01:35:03.197 : en:01:35:03.197
Скріншоти



Джерело:


 Трекер:    Зареєстрований   

Завантажити / скачати фільм українською



відео для новачків



 Зареєстрований:   2015-10-10 02:24
 Розмір:   5.32 GB 
 Оцінка фільму:   8/10 (Голосів: 11)
   
igor911 
Відео Гуртом
Відео Гуртом


З нами з: 18.01.08
Востаннє: 10.12.16
Повідомлень: 5213

2015-10-10 14:18  
braveboy, сподіваюсь, ти не забудеш додати скріншоти та
українські постери

Код:
[url=http://posters.hurtom.com/albums/movies/the-last-airbender.2010.ukr.poster1.jpg][img]http://posters.hurtom.com/cache/movies/the-last-airbender.2010.ukr.poster1_550.jpg[/img][/url]



Код:
[url=http://posters.hurtom.com/albums/movies/the-last-airbender.2010.ukr.poster2.jpg][img]http://posters.hurtom.com/cache/movies/the-last-airbender.2010.ukr.poster2_550.jpg[/img][/url]

braveboy 
Відео Гуртом - команда HD
Відео Гуртом - команда HD


З нами з: 15.06.10
Востаннє: 29.10.16
Повідомлень: 958

2015-10-10 18:58  
igor911 написано:
braveboy, сподіваюсь, ти не забудеш додати скріншоти та

додано

Ваш часовий пояс: GMT + 2 Години

Нова тема   Відповісти