Завантажити та скачати торренти українською


Убивці / Наймані вбивці / Assassins (1995) Remux 1080p 2xUkr/Eng | Sub Eng

Нові коментарі

Нова тема   Відповісти
Автор Повідомлення
Alex60 
Забанено
Забанено


З нами з: 06.12.14
Востаннє: 24.07.16
Повідомлень: 40

2015-10-09 22:32  
Убивці / Наймані вбивці / Assassins (1995) Remux 1080p 2xUkr/Eng | Sub Eng

Убивці / Наймані вбивці / Assassins (1995) Remux 1080p 2xUkr/Eng | Sub Eng


Жанр: кримінальний, пригодницький, екшн, трилер, бойовик
Країна: США, Францiя



Кінокомпанія: Warner Bros. Pictures, Silver Pictures, Donner/Shuler-Donner Productions, Canal+ [fr]
Режисер: Річард Доннер
Актори: Сiльвестр Сталоне, Антоніо Бандерас, Джуліана Мур та iншi

Сюжет:
Роберт Рет - кращий найманий вбивця в окрузі, але кодекс честі і почуття обов'язку, що колись складали частину його смертельної кар'єри, зникли. Світ, що виник після холодної війни, переповнений "відморозками". Рет хоче "зав'язати". Інший кілер, Міґель Бейн, амбітний молодий чоловік - навпаки прагне стати першим у своїй справі і знає, як це зробити - знищити Рета. Дія розгортається стрімко і непередбачувано, коли Сильвестер Сталлоне в ролі Рета і Антоніо Бандерас в ролі Бейна захищають свою професійну честь найманих убивць. Джуліан Мур грає хитрого хакера, затягнутого в жорстоку сутичку кілерського дуету.


Тривалість: 02:12:52
Якість: Remux
Відео:
кодек:
розмір кадру: 1 920 х 1080
бітрейт: 15000 кб/с

Аудіо # 1:
мова: українська
переклад: двоголосий закадровий [1+1]
кодек: 2.0
бітрейт: 192 кб/с

Аудіо # 2:
мова: українська
переклад: багатоголосий закадровий [ТВ+]
кодек: 2.0
бітрейт: 192 кб/с

Аудіо # 3:
мова: українська
переклад: багатоголосий закадровий [ТВ+]
кодек: 5.1
бітрейт: 1509 кб/с

Аудіо # 4:
мова: англійська
переклад: оригінал
кодек: -HD 5.1
бітрейт: 4132 кб/с

Субтитри:
мова: англійська
тип: програмні (м'які)
формат: *.srt
MediaInfo
General
Unique ID : 250812028361431646146345824470328708889 (0xBCB0A3BBBC7C610EAA014A377A5C8F19)
Complete name : S:\Assassins [1995] ReMux UkrEng.mkv
Format : Matroska
Format version : Version 4 / Version 2
File size : 19.0 GiB
Duration : 2h 12mn
Overall bit rate mode : Variable
Overall bit rate : 20.5 Mbps
Movie name : Assassins [1995] 'ReMux ©
Encoded date : UTC 2015-10-09 18:48:20
Writing application : mkvmerge v8.3.0 ('Over the Horizon') 64bit
Writing library : libebml v1.3.1 + libmatroska v1.4.2
Attachements : cover.jpg
DURATION : 02:12:52.971000000
NUMBER_OF_FRAMES : 747466
NUMBER_OF_BYTES : 4113786196
_STATISTICS_WRITING_APP : mkvmerge v8.3.0 ('Over the Horizon') 64bit
_STATISTICS_WRITING_DATE_UTC : 2015-10-09 18:48:20
_STATISTICS_TAGS : BPS DURATION NUMBER_OF_FRAMES NUMBER_OF_BYTES

Video
ID : 1
Format : AVC
Format/Info : Advanced Video Codec
Format profile : [email protected]
Format settings, CABAC : Yes
Format settings, ReFrames : 2 frames
Codec ID : V_MPEG4/ISO/AVC
Duration : 2h 12mn
Bit rate mode : Variable
Width : 1 920 pixels
Height : 1 080 pixels
Display aspect ratio : 16:9
Frame rate mode : Constant
Frame rate : 23.976 fps
Color space : YUV
Chroma subsampling : 4:2:0
Bit depth : 8 bits
Scan type : Progressive
Title : Assassins [1995] 'ReMux ©
Language : English
Default : No
Forced : No
DURATION : 02:12:44.790000000
NUMBER_OF_FRAMES : 190964
NUMBER_OF_BYTES : 14427395342
_STATISTICS_WRITING_APP : mkvmerge v8.3.0 ('Over the Horizon') 64bit
_STATISTICS_WRITING_DATE_UTC : 2015-10-09 18:48:20
_STATISTICS_TAGS : BPS DURATION NUMBER_OF_FRAMES NUMBER_OF_BYTES

Audio #1
ID : 2
Format : AC-3
Format/Info : Audio Coding 3
Mode extension : CM (complete main)
Format settings, Endianness : Big
Codec ID : A_AC3
Duration : 2h 12mn
Bit rate mode : Constant
Bit rate : 192 Kbps
Channel(s) : 2 channels
Channel positions : Front: L R
Sampling rate : 48.0 KHz
Compression mode : Lossy
Stream size : 182 MiB (1%)
Title : Dolby Digital | 2.0 | 48 kHz | 16 bit | 192 kbps | Двоголосий [1+1]
Language : Ukrainian
Default : Yes
Forced : No

Audio #2
ID : 3
Format : AC-3
Format/Info : Audio Coding 3
Mode extension : CM (complete main)
Format settings, Endianness : Big
Codec ID : A_AC3
Duration : 2h 12mn
Bit rate mode : Constant
Bit rate : 192 Kbps
Channel(s) : 2 channels
Channel positions : Front: L R
Sampling rate : 48.0 KHz
Compression mode : Lossy
Stream size : 182 MiB (1%)
Title : Dolby Digital | 2.0 | 48 kHz | 16 bit | 192 kbps | Багатоголосий [ТВ+]
Language : Ukrainian
Default : No
Forced : No

Audio #3
ID : 4
Format :
Format/Info : Digital Theater Systems
Mode : 16
Format settings, Endianness : Big
Codec ID : A_DTS
Duration : 2h 12mn
Bit rate mode : Constant
Bit rate : 1 509 Kbps
Channel(s) : 6 channels
Channel positions : Front: L C R, Side: L R, LFE
Sampling rate : 48.0 KHz
Bit depth : 24 bits
Compression mode : Lossy
Stream size : 1.40 GiB (7%)
Title : | 5.1 | 48 kHz | 24 bit | 1509 kbps | Багатоголосий [ТВ+]
Language : Ukrainian
Default : No
Forced : No

Audio #4
ID : 5
Format :
Format/Info : Digital Theater Systems
Format profile : MA / Core
Mode : 16
Format settings, Endianness : Big
Codec ID : A_DTS
Duration : 2h 12mn
Bit rate mode : Variable
Bit rate : Unknown / 1 509 Kbps
Channel(s) : 6 channels
Channel positions : Front: L C R, Side: L R, LFE
Sampling rate : 48.0 KHz
Bit depth : 24 bits
Compression mode : Lossless / Lossy
Title : -HD Ma | 5.1 | 48 kHz | 24 bit | 4132 kbps | Original
Language : English
Default : No
Forced : No

Text
ID : 6
Format : UTF-8
Codec ID : S_TEXT/UTF8
Codec ID/Info : UTF-8 Plain Text
Title : Full
Language : English
Default : No
Forced : No

Menu
00:00:00.000 : en:Marks Past and Present
00:05:35.293 : en:Next Mark
00:10:00.933 : en:Another Assassin
00:14:44.466 : en:Officers Down, Suspect Gone
00:17:39.099 : en:New Wheels
00:19:01.640 : en:Chitchat with a Passenger
00:24:35.015 : en:Reckless Driving
00:30:03.718 : en:Bishop Takes Rook Pawn
00:31:34.183 : en:New Mark
00:34:57.804 : en:A Watchful Eye
00:36:47.413 : en:Furry Mischief
00:37:56.774 : en:The Players Gather
00:44:13.442 : en:Miguel Strikes
00:48:12.472 : en:The Unfinished Mark
00:55:02.215 : en:Death at Close Quarters
00:59:54.924 : en:Birthday Blast
01:03:05.698 : en:Two Nobody's Spending Time Together
01:06:50.506 : en:Contact Reassigned
01:08:38.447 : en:A Way to Make a Million
01:12:37.269 : en:Payoff for Keeps
01:17:07.331 : en:New Arrangements
01:20:52.556 : en:The Desired Mark
01:22:00.498 : en:Memory Hotel
01:27:24.280 : en:The Day of the Dead
01:31:34.989 : en:Cemetery Cat-and-Mouse
01:35:18.003 : en:The Waiting Game
01:41:39.802 : en:Warm and Happy Stories
01:42:59.840 : en:Out of Patience
01:46:12.115 : en:The Lady Takes a Chance
01:47:33.530 : en:Final Chitchat
01:52:24.195 : en:Pulling the Trigger
01:55:42.602 : en:Bullets Among the Ruins
01:57:09.772 : en:Falling Down
01:59:17.984 : en:The Contractor
02:01:53.639 : en:The Correct Mark
02:03:05.711 : en:"No Goodbyes"
02:06:34.878 : en:End Credits
Info

Скріншоти



Подяка п.servus12, п.РОМЕО, п.ratbol та п.ua2004 за запис звуку
Особиста оцінка: 10 - без зайвих вагань рекомендую всім!


Золотий реліз (завантажене не впливає на рейтинг)
 Трекер:    Зареєстрований   

Завантажити / скачати фільм українською



відео для новачків



 Зареєстрований:   2015-10-09 22:32
 Розмір:   19.03 GB 
 Оцінка фільму:   8.5/10 (Голосів: 2)
   
Інші релізи
igor911 
Відео Гуртом
Відео Гуртом


З нами з: 18.01.08
Востаннє: 03.12.16
Повідомлень: 5124

2015-10-09 22:41  
Alex60, а навіщо спойлер "Info"? У MediaInfo ж більше інфи всерівно...
Alex60 
Забанено
Забанено


З нами з: 06.12.14
Востаннє: 24.07.16
Повідомлень: 40

2015-10-09 22:43  
Може хтось не може розiбратись у MediaInfo, а у Info усе видно.
boombyte 
Новенький


З нами з: 12.04.14
Востаннє: 30.11.16
Повідомлень: 16

2016-03-25 13:41  
роздайте хтось, бо не хочу ще один відключати.
igor911 
Відео Гуртом
Відео Гуртом


З нами з: 18.01.08
Востаннє: 03.12.16
Повідомлень: 5124

2016-03-25 13:54  
boombyte, що не хочеш відключати?
bot 
робот


З нами з: 30.09.07
Востаннє: 26.05.05
Повідомлень: 15982

2016-07-24 22:12  
Тему перенесено з Фільми в HD до форуму Фінальний смітник


Alex60

bot 
робот


З нами з: 30.09.07
Востаннє: 26.05.05
Повідомлень: 15982

2016-07-25 13:29  
Тему перенесено з Фінальний смітник до форуму Фільми в HD


igor911

Ваш часовий пояс: GMT + 2 Години

Нова тема   Відповісти