Завантажити та скачати торренти українською


VA - Drum Kolo (серія "Jazz Коло") (2CD) (2009) [FLAC] | Jazz

Нові коментарі

Нова тема   Відповісти
Останній раз роздавалося kolpavel (2016-12-07)
Автор Повідомлення
kolpavel 
VIP


З нами з: 04.05.14
Востаннє: 07.12.16
Повідомлень: 1059

2015-10-09 15:52  
VA - Drum Kolo (серія "Jazz Коло") (2CD) (2009) [FLAC] | Jazz

VA - Drum Kolo (серія "Jazz Коло") (2CD) (2009) [FLAC] | Jazz


Стиль: Jazz
Країна, місто: Україна
Сайти: Офіційний сайт
Видавець: Tempora (№ за каталогом: 049/12 050/12)
Пісні:
CD1
VA - Drum Kolo (серія "Jazz Коло") (2CD) (2009) [FLAC] | Jazz
01. All The Things You Are (Сергій Швірст) музика: J. Kern 6:58
02. Каруселі / Merry-Go-Rounds (Олександр Хрістідіс) музика: В. Новіков 6:11
03. Перегін / The Race (Анатолій Шацький) музика: А. Орєхов 5:44
04. Недуг / Malady (Дмитро Пасічник) музика: Цвіркунове число 5:22
05. Жовтень / October (Ігор "Марцефал" Лесько) музика: С. Шадурський 5:10
06. Tumbao Salsa (Валерий Волков) музика: В. Волков слова: E. Padron 3:51
07. Ой чий то кінь стоїть (Олександр Лебеденко, (Z-Band) музика: українська народна, ар. І. Закус 9:00
08. Parafraz (Андрій Кузьменчук) музика: У. Бекіров 8:04
09. Sangit Song (Сергій Табунщик) музика: С. Табунщик 8:29
10. Festival De Ritmo (Валерій Латанюк, (Радиобенд Александра Фокина) музика: J. Oliver, оркестровка В. Марховський 3:58
11. Вийди, вийди, Іванку (Ігор Гнидин, (ShockolaD) музика: українська народна, ар. І. Гнидин 8:28
CD2
VA - Drum Kolo (серія "Jazz Коло") (2CD) (2009) [FLAC] | Jazz
01. J. C. Funk (Олександр Гарькавий) музика: Unity 5:52
02. Friendly Blues (Віталій Бажора) музика: В. Зінковський 5:14
03. Naiffunk (Анатолій Шмаргун) музика: А. Шмаргун слова: А. Шулаков 4:06
04. Quartet (Євген Селезньов) музика: О. Рукомойніков 6:09
05. Josie (Максим Малишев, (Елена Попова) музика: D. Fagen - W. Becker 5:19
06. Play 74 (Алекс Фантаев) музика: О. Фантаєв 5:17
07. Influence (Олександр Муренко) музика: С. Рожков, О. Муренко, М. Кістеньов 5:31
08. Ambulance (Євген Бардик) музика: О. Павлов 9:21
09. Learn To Forgive (Олег Марков, (UpSide 3) музика: О. Марков 9:38
10. Garden Of Eden (Павло Галицький) музика: А. Шулаков 5:49
11. Jerry (Євген Машковцев) музика: Є. Машковцев 7:54
EAC
Exact Audio Copy V1.0 beta 1 from 15. November 2010

Отчёт EAC об извлечении, выполненном 9. ноября 2014, 19:26

Jazz Colo / Drum Kolo CD1

Дисковод: HL-DT-STDVDRAM GH60N Adapter: 0 ID: 0

Режим чтения : Достоверность
Использование точного потока : Да
Отключение кэша аудио : Да
Использование указателей C2 : Нет

Коррекция смещения при чтении : 667
Способность читать области Lead-in и Lead-out : Нет
Заполнение пропущенных сэмплов тишиной : Да
Удаление блоков с тишиной в начале и конце : Нет
При вычислениях CRC использовались нулевые сэмплы : Да
Интерфейс : Встроенный Win32-интерфейс для Win NT/2000

Выходной формат : Внутренние WAV-операции
Формат сэмплов : 44.100 Гц; 16 бит; стерео

TOC извлечённого CD

Трек | Старт | Длительность | Начальный сектор | Конечный сектор
---------------------------------------------------------------------
1 | 0:00.00 | 6:57.67 | 0 | 31341
2 | 6:57.67 | 6:11.29 | 31342 | 59195
3 | 13:09.21 | 5:43.66 | 59196 | 84986
4 | 18:53.12 | 5:21.42 | 84987 | 109103
5 | 24:14.54 | 5:10.09 | 109104 | 132362
6 | 29:24.63 | 3:51.25 | 132363 | 149712
7 | 33:16.13 | 8:59.58 | 149713 | 190195
8 | 42:15.71 | 8:03.46 | 190196 | 226466
9 | 50:19.42 | 8:29.31 | 226467 | 264672
10 | 58:48.73 | 3:58.26 | 264673 | 282548
11 | 62:47.24 | 8:28.09 | 282549 | 320657

Характеристики диапазона извлечения и сообщения об ошибках

Выбранный диапазон

Имя файла D:\TEST_audio\DrumKolo\Jazz Colo - Drum Kolo CD1.wav

Пиковый уровень 100.0 %
Скорость извлечения 0.2 X
Качество диапазона 100.0 %
CRC копии 25F7732D
Копирование... OK

Ошибок не произошло

AccurateRip: сводка

Трек 1 отсутствует в базе данных
Трек 2 отсутствует в базе данных
Трек 3 отсутствует в базе данных
Трек 4 отсутствует в базе данных
Трек 5 отсутствует в базе данных
Трек 6 отсутствует в базе данных
Трек 7 отсутствует в базе данных
Трек 8 отсутствует в базе данных
Трек 9 отсутствует в базе данных
Трек 10 отсутствует в базе данных
Трек 11 отсутствует в базе данных

Ни одного трека нет в базе AccurateRip

Конец отчёта

==== Контрольная сумма отчёта C54D5003D6ADAD4ABB3BA2A30648EBDDF6123FA5FA782D7332CE6EA031B6583A ====
Exact Audio Copy V1.0 beta 1 from 15. November 2010

Отчёт EAC об извлечении, выполненном 9. ноября 2014, 21:08

Jazz Kolo / Drum Kolo CD2

Дисковод: HL-DT-STDVDRAM GH60N Adapter: 0 ID: 0

Режим чтения : Достоверность
Использование точного потока : Да
Отключение кэша аудио : Да
Использование указателей C2 : Нет

Коррекция смещения при чтении : 667
Способность читать области Lead-in и Lead-out : Нет
Заполнение пропущенных сэмплов тишиной : Да
Удаление блоков с тишиной в начале и конце : Нет
При вычислениях CRC использовались нулевые сэмплы : Да
Интерфейс : Встроенный Win32-интерфейс для Win NT/2000

Выходной формат : Внутренние WAV-операции
Формат сэмплов : 44.100 Гц; 16 бит; стерео

TOC извлечённого CD

Трек | Старт | Длительность | Начальный сектор | Конечный сектор
---------------------------------------------------------------------
1 | 0:00.00 | 5:52.00 | 0 | 26399
2 | 5:52.00 | 5:14.05 | 26400 | 49954
3 | 11:06.05 | 4:06.23 | 49955 | 68427
4 | 15:12.28 | 6:08.52 | 68428 | 96079
5 | 21:21.05 | 5:19.29 | 96080 | 120033
6 | 26:40.34 | 5:17.13 | 120034 | 143821
7 | 31:57.47 | 5:31.13 | 143822 | 168659
8 | 37:28.60 | 9:21.02 | 168660 | 210736
9 | 46:49.62 | 9:37.73 | 210737 | 254084
10 | 56:27.60 | 5:49.09 | 254085 | 280268
11 | 62:16.69 | 7:54.14 | 280269 | 315832

Характеристики диапазона извлечения и сообщения об ошибках

Выбранный диапазон

Имя файла D:\TEST_audio\DrumKolo\Jazz Kolo - Drum Kolo CD2.wav

Пиковый уровень 100.0 %
Скорость извлечения 0.2 X
Качество диапазона 99.9 %
CRC теста 7E0E7DD4
CRC копии 7E0E7DD4
Копирование... OK

Ошибок не произошло

AccurateRip: сводка

Трек 1 отсутствует в базе данных
Трек 2 отсутствует в базе данных
Трек 3 отсутствует в базе данных
Трек 4 отсутствует в базе данных
Трек 5 отсутствует в базе данных
Трек 6 отсутствует в базе данных
Трек 7 отсутствует в базе данных
Трек 8 отсутствует в базе данных
Трек 9 отсутствует в базе данных
Трек 10 отсутствует в базе данных
Трек 11 отсутствует в базе данных

Ни одного трека нет в базе AccurateRip

Конец отчёта

==== Контрольная сумма отчёта 2BD7FD7B13D300106CAEC42FFFB957DFD44FA7D7B44947170C990010224D37AE ====
(.CUE)
REM GENRE Jazz
REM DATE 2009
REM DISCID A510B30B
REM COMMENT "ExactAudioCopy v1.0b1"
PERFORMER "Jazz Colo"
TITLE "Drum Kolo CD1"
FILE "Jazz Colo - Drum Kolo CD1.flac" WAVE
TRACK 01 AUDIO
TITLE "All The Things You Are"
PERFORMER "Sergi'y SHvi'rst"
FLAGS DCP
INDEX 01 00:00:00
TRACK 02 AUDIO
TITLE "Каруселі / Merry-Go-Rounds"
PERFORMER "Oleksandr Hri'sti'di's"
FLAGS DCP
INDEX 01 06:57:67
TRACK 03 AUDIO
TITLE "Перегін / The Race"
PERFORMER "Anatoli'y SHac'kiy"
FLAGS DCP
INDEX 01 13:09:21
TRACK 04 AUDIO
TITLE "Недуг / Malady"
PERFORMER "Dmitro Pasi'chnik"
FLAGS DCP
INDEX 01 18:53:12
TRACK 05 AUDIO
TITLE "Жовтень / October"
PERFORMER "I'gor Les'ko"
FLAGS DCP
INDEX 01 24:14:54
TRACK 06 AUDIO
TITLE "Tumbao Salsa"
PERFORMER "Valeriy Volkov"
FLAGS DCP
INDEX 01 29:24:63
TRACK 07 AUDIO
TITLE "Ой чий то кінь стоїть"
PERFORMER "Oleksandr Lebedenko"
FLAGS DCP
INDEX 01 33:16:13
TRACK 08 AUDIO
TITLE "Parafraz "
PERFORMER "Andri'y Kuz'menchuk"
FLAGS DCP
INDEX 01 42:15:71
TRACK 09 AUDIO
TITLE "Sangit Song"
PERFORMER "Сергій Табунщик"
FLAGS DCP
INDEX 01 50:19:42
TRACK 10 AUDIO
TITLE "Festival De Ritmo"
PERFORMER "Valeri'y Latanyuk"
FLAGS DCP
INDEX 01 58:48:73
TRACK 11 AUDIO
TITLE "Вийди, вийди, Іванку"
PERFORMER "I'gor Gnidin"
FLAGS DCP
INDEX 01 62:47:24

REM GENRE Jazz
REM DATE 2009
REM DISCID 9C10730B
REM COMMENT "ExactAudioCopy v1.0b1"
PERFORMER "Jazz Kolo"
TITLE "Drum Kolo CD2"
FILE "Jazz Kolo - Drum Kolo CD2.flac" WAVE
TRACK 01 AUDIO
TITLE "J. C. Funk"
PERFORMER "Oleksandr Gar'kaviy"
FLAGS DCP
INDEX 01 00:00:00
TRACK 02 AUDIO
TITLE "Friendly Blues"
PERFORMER "Vi'tali'y Bajora"
FLAGS DCP
INDEX 00 05:50:00
INDEX 01 05:52:00
TRACK 03 AUDIO
TITLE "Naiffunk"
PERFORMER "Anatoli'y SHmargun"
FLAGS DCP
INDEX 00 11:04:05
INDEX 01 11:06:05
TRACK 04 AUDIO
TITLE "Quartet"
PERFORMER "E''vgen Selezn'ov"
FLAGS DCP
INDEX 00 15:10:28
INDEX 01 15:12:28
TRACK 05 AUDIO
TITLE "Josie"
PERFORMER "Maksim Malishev"
FLAGS DCP
INDEX 00 21:19:05
INDEX 01 21:21:05
TRACK 06 AUDIO
TITLE "Play 74"
PERFORMER "Aleks Fantaev"
FLAGS DCP
INDEX 00 26:38:34
INDEX 01 26:40:34
TRACK 07 AUDIO
TITLE "Influence"
PERFORMER "Oleksandr Murenko"
FLAGS DCP
INDEX 00 31:55:49
INDEX 01 31:57:47
TRACK 08 AUDIO
TITLE "Ambulance"
PERFORMER "E''vgen Bardik"
FLAGS DCP
INDEX 00 37:26:60
INDEX 01 37:28:60
TRACK 09 AUDIO
TITLE "Learn To Forgive"
PERFORMER "Олег Марков"
FLAGS DCP
INDEX 00 46:47:62
INDEX 01 46:49:62
TRACK 10 AUDIO
TITLE "Garden Of Eden"
PERFORMER "Pavlo Galic'kiy"
FLAGS DCP
INDEX 00 56:25:60
INDEX 01 56:27:60
TRACK 11 AUDIO
TITLE "Jerry"
PERFORMER "E''vgen Mashkovcev"
FLAGS DCP
INDEX 00 62:14:69
INDEX 01 62:16:69
Лог якостi
-----------------------

DON'T MODIFY THIS FILE

-----------------------

PERFORMER: auCDtect Task Manager, ver. 1.5.1RC4 build 1.5.1.5
Copyright (c) 2008-2010 y-soft. All rights reserved
http://y-soft.org

ANALYZER: auCDtect: CD records authenticity detector, version 0.8.2
Copyright (c) 2004 Oleg Berngardt. All rights reserved.
Copyright (c) 2004 Alexander Djourik. All rights reserved.

FILE: Jazz Colo - Drum Kolo CD1.wav
Size: 754187660 Hash: 817AE89E4131EF65B452A96FBACDA17A Accuracy: -m0
Conclusion: CDDA 99%
Signature: 4A51CCD215C97300654694E836184ECFD585B8C5

-----------------------

DON'T MODIFY THIS FILE

-----------------------

PERFORMER: auCDtect Task Manager, ver. 1.5.1RC4 build 1.5.1.5
Copyright (c) 2008-2010 y-soft. All rights reserved
http://y-soft.org

ANALYZER: auCDtect: CD records authenticity detector, version 0.8.2
Copyright (c) 2004 Oleg Berngardt. All rights reserved.
Copyright (c) 2004 Alexander Djourik. All rights reserved.

FILE: Jazz Kolo - Drum Kolo CD2.wav
Size: 742839260 Hash: 2861A41F5F6ACC5C7441A27D00FE8791 Accuracy: -m0
Conclusion: CDDA 100%
Signature: D9664C54E644AE9ECC1ABA0066A7A84BCD582EC1
Тривалість: 02:22:26 (01:11:15+01:10:11)
Мова: інструментальні композиції
Аудіо-кодек: FLAC
Бітрейт: 849-880 кб/с
Джерело: трекер
Додаткова інформація:
Черговий том аудіо-довідника від проекту "Jazz Коло" присвячено, як бачите, майстрам гри на ударній установці. Приємно, що і цього разу матеріалу виявилося так багато, що укладачам не вдалося вмістити все на один диск. Приємно, що тут знайшлося місце і для "ветеранів" українського джазу, і для зовсім молодого покоління. Не кажучи вже про таких музикантів, як Олексій Фантаєв, Ігор Гнидин, Олег Марков, і т.д. – про тих, хто кілька останніх років активно формує нове обличчя, нову якість українського джазу. І робить це дуже гідно, на високому професійному рівні. Всього – 22 композиції, 22 маленькі подорожі, окремі манери, способи сприйняття. Тут зібрано дуже різну музику – зрештою, як і має бути в енциклопедії – але, гадаємо, далеко не кожну енциклопедію вивчати буде так цікаво, як цю... (UMKA COM)


Якщо Ви справді бажаєте підтримати українське - після прослуховування, якщо музика вам сподобалась, придбайте ліцензійний диск. Підтримаймо вітчизняних виконавців!


Срібний реліз (на рейтинг впливає 50% завантаженого)
 Трекер:    Зареєстрований   

Завантажити / скачати українську музику



відео для новачків



 Зареєстрований:   2015-10-09 15:52
 Розмір:   876 MB 
 Оцінка музики:   10/10 (Голосів: 2)
   
kolpavel 
VIP


З нами з: 04.05.14
Востаннє: 07.12.16
Повідомлень: 1059

2015-10-09 16:24  
Серія "Jazz Koлo" - проект "Jazz Koлo" - http://toloka.to/t25041, http://toloka.to/t25042, http://toloka.to/t46072.
Ваш часовий пояс: GMT + 2 Години

Нова тема   Відповісти