Завантажити та скачати торренти українською


Пастка для батьків / The Parent Trap (1998) 720p Ukr/Eng | Sub Eng

Нові коментарі

Нова тема   Відповісти
Автор Повідомлення
demotyvator 
Частий відвідувач


З нами з: 24.02.12
Востаннє: 28.11.16
Повідомлень: 35

2015-10-08 17:39  
Пастка для батьків / The Parent Trap (1998) 720p Ukr/Eng | Sub Eng

Пастка для батьків / The Parent Trap (1998) 720p Ukr/Eng | Sub Eng


Жанр: пригоди, комедія, драма, сімейний
Країна: США



Кінокомпанія: Walt Disney Pictures, The Meyers/Shyer Company
Композитор: Алан Сільвестрі (Alan Silvestri)
Оператор: Дін Канді (Dean Cundey)
Прод'юсер: Чарлз Шаєр (Charles Shyer)
Автори сценарію: Девід Свіфт (David Swift), Ненсі Мейєрс, Чарлз Шаєр
Режисер: Ненсі Мейєрс (Nancy Meyers)
Актори: Ліндсей Лохан (Lindsay Lohan), Деніс Квеїд (Dennis Quaid), Наташа Річардсон (Natasha Richardson), Елейн Хендрікс (Elaine Hendrix), Ліза Енн Волтер (Lisa Ann Walter), Саймон Канц (Simon Kunz), Поллі Голлідей (Polly Holliday), Меггі Вілер (Maggie Wheeler), Ронні Стівенс (Ronnie Stevens), Джоанна Барнс (Joanna Barnes), Голлі Мейєрс-Шайєр (Hallie Meyers-Shyer)

Сюжет:
Юна Холлі Паркер живе в сонячній Каліфорнії з найчудовішим батьком на світі, а її ровесниця Ені Джеймс — в туманному Лондоні з прекрасною люблячою матір'ю. Перша мріє про маму, без якої їй дуже важко, а другій так хочеться, щоб у неї був тато.

Коли дівчатка випадково зустрічаються в літньому таборі, в них є, чим поділитися одній з одною. Але окрім загального жалю між Холлі і Ені існує ще одна схожість: вони - близнята! Їх батьки розвелися багато років тому, і дівчатка вирішують виправити цю трагічну помилку.

Сестрички починають діяти: американка повертається до Лондона, а англійка до Америки. І батьки, які нічогісінько не підозрюють легко потрапляють в пастку.



Тривалість: 02:08:14
Якість: 720p
Відео:
кодек:
розмір кадру: 1 280 х 692
бітрейт: 4 004 кб/с

Аудіо # 1:
мова: українська
переклад: двоголосий закадровий
кодек: 5.1
бітрейт: 384 кб/с

Аудіо # 2:
мова: англійська
переклад: оригінал
кодек: 5.1
бітрейт: 384 кб/с

Субтитри:
мова: англійська
тип: програмні (м'які)
формат: *.UTF-8
MediaInfo
General
Unique ID : 200494769796122633722056577936934212910 (0x96D5E3597EC2FDE38E87FB5D64BE952E)
Complete name : C:\Users\The Parent Trap (1998) 720p [Ukr,Eng Sub Eng] [Hurtom] by demotyvator.mkv
Format : Matroska
Format version : Version 2
File size : 4.36 GiB
Duration : 2h 8mn
Overall bit rate : 4 869 Kbps
Movie name : The Parent Trap (1998)
Encoded date : UTC 2015-10-08 13:31:26
Writing application : mkvmerge v5.6.0 ('Kenya Kane') built on May 27 2012 16:44:04
Writing library : libebml v1.2.3 + libmatroska v1.3.0

Video
ID : 1
Format : AVC
Format/Info : Advanced Video Codec
Format profile : [email protected]
Format settings, CABAC : No
Format settings, ReFrames : 2 frames
Format settings, GOP : N=1
Codec ID : V_MPEG4/ISO/AVC
Duration : 2h 8mn
Bit rate : 4 004 Kbps
Width : 1 280 pixels
Height : 692 pixels
Display aspect ratio : 1.85:1
Frame rate mode : Constant
Frame rate : 23.976 fps
Color space : YUV
Chroma subsampling : 4:2:0
Bit depth : 8 bits
Scan type : Progressive
Bits/(Pixel*Frame) : 0.189
Stream size : 3.59 GiB (82%)
Title : The Parent Trap (1998)
Language : English
Default : Yes
Forced : No
Color range : Limited
Color primaries : BT.709
Transfer characteristics : BT.709
Matrix coefficients : BT.709

Audio #1
ID : 2
Format : AC-3
Format/Info : Audio Coding 3
Mode extension : CM (complete main)
Format settings, Endianness : Big
Codec ID : A_AC3
Duration : 2h 8mn
Bit rate mode : Constant
Bit rate : 384 Kbps
Channel(s) : 6 channels
Channel positions : Front: L C R, Side: L R, LFE
Sampling rate : 48.0 KHz
Compression mode : Lossy
Delay relative to video : 2s 485ms
Stream size : 352 MiB (8%)
Title : The Parent Trap (1998) 5.1 novy 384 kbps
Language : Ukrainian
Default : Yes
Forced : No

Audio #2
ID : 3
Format : AC-3
Format/Info : Audio Coding 3
Mode extension : CM (complete main)
Format settings, Endianness : Big
Codec ID : A_AC3
Duration : 2h 8mn
Bit rate mode : Constant
Bit rate : 384 Kbps
Channel(s) : 6 channels
Channel positions : Front: L C R, Side: L R, LFE
Sampling rate : 48.0 KHz
Compression mode : Lossy
Delay relative to video : 2s 485ms
Stream size : 352 MiB (8%)
Title : The Parent Trap (1998) AC3_5.1 384 kbps
Language : English
Default : No
Forced : No

Text
ID : 4
Format : UTF-8
Codec ID : S_TEXT/UTF8
Codec ID/Info : UTF-8 Plain Text
Title : Full
Language : English
Default : No
Forced : No

Menu
00:00:00.000 : en:1
00:03:29.000 : en:2
00:12:07.000 : en:3
00:21:25.000 : en:4
00:28:03.000 : en:5
00:37:24.000 : en:6
00:45:08.000 : en:7
01:07:38.000 : en:8
01:18:34.000 : en:9
01:23:09.000 : en:10
01:35:42.000 : en:11
01:44:49.000 : en:12
01:54:58.000 : en:13
02:02:24.000 : en:14
Скріншоти





За українську доріжку висловлюю подяку панам karvai0 та rooster

Джерело: &
Особиста оцінка: 10 - без зайвих вагань рекомендую всім!


Срібний реліз (на рейтинг впливає 50% завантаженого)
 Трекер:    Зареєстрований   

Завантажити / скачати фільм українською



відео для новачків



 Зареєстрований:   2015-10-09 06:33
 Розмір:   4.36 GB 
 Оцінка фільму:   9.4/10 (Голосів: 7)
   
Інші релізи
igor911 
Відео Гуртом
Відео Гуртом


З нами з: 18.01.08
Востаннє: 03.12.16
Повідомлень: 5113

2015-10-09 00:09  
demotyvator, це не , а , і в джерелі, яке ти вказав, і на інших ресурсах це чітко зазначено. Виправ обидва заголовки та назву файла, онови торрент.
Ваш часовий пояс: GMT + 2 Години

Нова тема   Відповісти