Завантажити та скачати торренти українською


Клин клином / Fire with Fire (2012) 720p 2xUkr/Eng | Sub Ukr/Eng

Нові коментарі

Нова тема   Відповісти
Автор Повідомлення
Anonymous 







2015-10-07 02:12  
Клин клином / Fire with Fire (2012) 720p 2xUkr/Eng | Sub Ukr/Eng



Альтернативні та оригінальні обкладинки та постери








повнорозмірні зображення відкриються по кліку (з натиснутим CTRL чи кліком середньою кнопкою мишки - у новій вкладці)


Жанр: бойовик, трилер, драма, кримінальний
Країна: США



Кінокомпанія: Cheetah Vision, Emmett/Furla Films, Envision Entertainment Corporation, Paradox Entertainment, Mandalay Vision, Industry Entertainment, Knightsbridge Entertainment
Режисер: Девід Барретт / David Barrett
Актори: Джош Дюамель / Josh Duhamel, Брюс Вілліс / Bruce Willis, Розаріо Доусон / Rosario Dawson, Вінсент Д'Онофріо / Vincent D'Onofrio, Кертіс "50 Cent" Джексон / 50 Cent (Curtis Jackson), Джуліан МакМегон / Julian McMahon, Вінні Джонс / Vinnie Jones, Кевін Данн / Kevin Dunn та інші

Сюжет:
Джеремі Колмeн - пожежник, його справа не тільки боротися з вогнем, а й рятувати людей, як це часто буває. Одного разу, він стає свідком подвійного вбивства, і вирішує виступити свідком. Як виявилося, краще б він цього не робив. Людина, проти якої він не побоявся давати свідчення, виявляється серйозним бандитом. Тепер Джеремі повинен визначитися, чи буде він ховатися за новою особистістю в програмі захисту свідків, постійно побоюючись за своє життя, або ж буде діяти методами свого супротивника.


Рейтинг MPAA: R - особам до 17 років обов'язкова присутність батьків або дорослого опікуна
Вікова категорія: 16+

Тривалість: 01:37:31
Якість: 720p [EbP]
Відео:
кодек:
розмір кадру: 1280 х 538
бітрейт: 3900 кбіт/с

Аудіо # 1:
мова: українська
переклад: багатоголосий закадровий
кодек: 2.0 (стерео)
бітрейт: 192 кбіт/с

Аудіо # 2:
мова: українська
переклад: багатоголосий закадровий
ролі озвучили: Андрій Федінчик, Ярослав Чорненький, Андрій Вільколик та Ніна Касторф
кодек: 2.0
бітрейт: 192 кбіт/с

Аудіо # 3:
мова: англійська
переклад: оригінал
кодек: 5.1
бітрейт: 1509 кбіт/с

Субтитри # 1:
мова: українська
тип: програмні (м'які)
формат: *.srt

Субтитри # 2-3:
мова: англійська (повні, SDH)
тип: програмні (м'які)
формат: *.srt

Збережено оригінальні розділи, як на Blu-ray.
MediaInfo та x264log
Код:
General
Unique ID                   : 188171373276213181347875506550361069713 (0x8D907CFDBFEA7101903FF81A45789891)
Complete name               : Fire with Fire (2012) [2xUkr,Eng sub.Ukr,Eng] 720p [Hurtom].mkv
Format                      : Matroska
Format version              : Version 4 / Version 2
File size                   : 3.95 GiB
Duration                    : 1h 37mn
Overall bit rate            : 5 795 Kbps
Movie name                  : Клин клином / Fire with Fire (2012) [2xUkr,Eng sub.Ukr,Eng] 720p [Hurtom-igor911]
Encoded date                : UTC 2015-10-06 22:38:52
Writing application         : mkvmerge v8.4.0 ('A better way to fly') 64bit
Writing library             : libebml v1.3.1 + libmatroska v1.4.2
Attachements                : cover.jpg / x264log.txt
DURATION                    : 01:32:35.473000000
NUMBER_OF_FRAMES            : 1167
NUMBER_OF_BYTES             : 63060
_STATISTICS_WRITING_APP     : mkvmerge v8.4.0 ('A better way to fly') 64bit
_STATISTICS_WRITING_DATE_UT : 2015-10-06 22:38:52
_STATISTICS_TAGS            : BPS DURATION NUMBER_OF_FRAMES NUMBER_OF_BYTES

Video
ID                          : 1
Format                      : AVC
Format/Info                 : Advanced Video Codec
Format profile              : [email protected]
Format settings, CABAC      : Yes
Format settings, ReFrames   : 12 frames
Codec ID                    : V_MPEG4/ISO/AVC
Duration                    : 1h 37mn
Bit rate                    : 3 900 Kbps
Width                       : 1 280 pixels
Height                      : 538 pixels
Display aspect ratio        : 2.40:1
Frame rate mode             : Constant
Frame rate                  : 23.976 fps
Color space                 : YUV
Chroma subsampling          : 4:2:0
Bit depth                   : 8 bits
Scan type                   : Progressive
Bits/(Pixel*Frame)          : 0.236
Stream size                 : 2.58 GiB (65%)
Title                       : Клин клином / Fire with Fire (2012) 720p [EbP]
Writing library             : core 128 r2216 198a7ea
Encoding settings           : cabac=1 / ref=12 / deblock=1:-3:-3 / analyse=0x3:0x113 / me=tesa / subme=9 / psy=1 / psy_rd=1.05:0.00 / mixed_ref=1 / me_range=16 / chroma_me=1 / trellis=2 / 8x8dct=1 / cqm=0 / deadzone=21,11 / fast_pskip=0 / chroma_qp_offset=-2 / threads=12 / lookahead_threads=2 / sliced_threads=0 / nr=0 / decimate=0 / interlaced=0 / bluray_compat=0 / constrained_intra=0 / bframes=8 / b_pyramid=2 / b_adapt=2 / b_bias=0 / direct=3 / weightb=1 / open_gop=0 / weightp=2 / keyint=250 / keyint_min=23 / scenecut=40 / intra_refresh=0 / rc=2pass / mbtree=0 / bitrate=3900 / ratetol=1.0 / qcomp=0.60 / qpmin=0 / qpmax=69 / qpstep=4 / cplxblur=20.0 / qblur=0.5 / ip_ratio=1.40 / pb_ratio=1.30 / aq=1:0.60
Language                    : English
Default                     : Yes
Forced                      : No
DURATION                    : 01:37:31.638000000
NUMBER_OF_FRAMES            : 140299
NUMBER_OF_BYTES             : 2851595810
_STATISTICS_WRITING_APP     : mkvmerge v8.4.0 ('A better way to fly') 64bit
_STATISTICS_WRITING_DATE_UT : 2015-10-06 22:38:52
_STATISTICS_TAGS            : BPS DURATION NUMBER_OF_FRAMES NUMBER_OF_BYTES

Audio #1
ID                          : 2
Format                      : AC-3
Format/Info                 : Audio Coding 3
Mode extension              : CM (complete main)
Format settings, Endianness : Big
Codec ID                    : A_AC3
Duration                    : 1h 37mn
Bit rate mode               : Constant
Bit rate                    : 192 Kbps
Channel(s)                  : 2 channels
Channel positions           : Front: L R
Sampling rate               : 48.0 KHz
Compression mode            : Lossy
Stream size                 : 134 MiB (3%)
Title                       : MVO [NTN] 2.0 (stereo) 192 kbps [Hurtom-Gelios,slavik_v_z]
Language                    : Ukrainian
Default                     : Yes
Forced                      : No

Audio #2
ID                          : 3
Format                      : AC-3
Format/Info                 : Audio Coding 3
Mode extension              : CM (complete main)
Format settings, Endianness : Big
Codec ID                    : A_AC3
Duration                    : 1h 37mn
Bit rate mode               : Constant
Bit rate                    : 192 Kbps
Channel(s)                  : 2 channels
Channel positions           : Front: L R
Sampling rate               : 48.0 KHz
Compression mode            : Lossy
Stream size                 : 134 MiB (3%)
Title                       : MVO [Ukraina] 2.0 192 kbps [Hurtom-Gelios,4erkov]
Language                    : Ukrainian
Default                     : No
Forced                      : No

Audio #3
ID                          : 4
Format                      :
Format/Info                 : Digital Theater Systems
Mode                        : 16
Format settings, Endianness : Big
Codec ID                    : A_DTS
Duration                    : 1h 37mn
Bit rate mode               : Constant
Bit rate                    : 1 509 Kbps
Channel(s)                  : 6 channels
Channel positions           : Front: L C R, Side: L R, LFE
Sampling rate               : 48.0 KHz
Bit depth                   : 24 bits
Compression mode            : Lossy
Stream size                 : 1.03 GiB (26%)
Title                       : Original 5.1 1509 kbps
Language                    : English
Default                     : No
Forced                      : No

Text #1
ID                          : 5
Format                      : UTF-8
Codec ID                    : S_TEXT/UTF8
Codec ID/Info               : UTF-8 Plain Text
Title                       : Ukr full
Language                    : Ukrainian
Default                     : No
Forced                      : No

Text #2
ID                          : 6
Format                      : UTF-8
Codec ID                    : S_TEXT/UTF8
Codec ID/Info               : UTF-8 Plain Text
Title                       : Eng full
Language                    : English
Default                     : No
Forced                      : No

Text #3
ID                          : 7
Format                      : UTF-8
Codec ID                    : S_TEXT/UTF8
Codec ID/Info               : UTF-8 Plain Text
Title                       : Eng SDH
Language                    : English
Default                     : No
Forced                      : No

Menu
00:00:00.000                : en:00:00:00.000
00:03:36.091                : en:00:03:36.091
00:08:34.013                : en:00:08:34.013
00:16:14.765                : en:00:16:14.765
00:20:42.283                : en:00:20:42.283
00:26:58.242                : en:00:26:58.242
00:31:47.614                : en:00:31:47.614
00:38:16.419                : en:00:38:16.419
00:41:43.710                : en:00:41:43.710
00:45:02.783                : en:00:45:02.783
00:49:18.622                : en:00:49:18.622
00:56:32.180                : en:00:56:32.180
01:00:33.046                : en:01:00:33.046
01:05:14.119                : en:01:05:14.119
01:12:39.188                : en:01:12:39.188
01:23:30.339                : en:01:23:30.339

Код:
[info]: frame I:1251 Avg QP:12.00 size:101461
[info]: frame P:35922 Avg QP:14.50 size: 37667
[info]: frame B:103126 Avg QP:16.20 size: 13300
[info]: consecutive B-frames: 5.0% 5.6% 11.8% 19.9% 17.0% 30.5% 5.5% 1.7% 3.0%

encoded 140299 frames, 6.72 fps, 3898.53 kb/s




Джерела та подяки: &
ріп відео, оригінальні звук та субтитри - EbP (HDbits); українські доріжки - Gelios - зведення, slavik_v_z (1), 4erkov (2) - запис з ТБ; українські субтитри - Xshot; українізований постер - Gelios; фільмографії акторів та інформація про озвучення - Віктор (всі - Гуртом).





ЗАЛИШАЙТЕСЬ ЯКОМОГА ДОВШЕ НА РОЗДАЧІ!

СКАЧАВ САМ - ДАЙ СКАЧАТИ ІНШИМ


 Трекер:    Зареєстрований   

Завантажити / скачати фільм українською



відео для новачків



 Зареєстрований:   2015-10-07 02:12
 Розмір:   3.95 GB 
 Оцінка фільму:   4.5/10 (Голосів: 19)
   
Інші релізи
   Клин клином / Fire with Fire (2012) 2xUkr/Eng | Sub Ukr/Eng Gelios  2 / 0   1.46 GB   2015-10-06 18:17 
Ваш часовий пояс: GMT + 2 Години

Нова тема   Відповісти