Завантажити та скачати торренти українською


Сокира Перуна - ...і мертвим, і живим, і ненародженим... (2015) [FLAC] | RAC

Нові коментарі

Нова тема   Відповісти
Автор Повідомлення
Wolf1488 
VIP


З нами з: 20.10.09
Востаннє: 03.12.16
Повідомлень: 429

2015-10-05 22:26  
Сокира Перуна - ...і мертвим, і живим, і ненародженим... (2015) [FLAC] | RAC

Сокира Перуна - ...і мертвим, і живим, і ненародженим... (2015) [FLAC] | RAC


Стиль: RAC
Країна, місто: Україна, Київ
Сайти: Офіційний сайт
Видавець: SvaStone
Виконавці:
Арсеній Білодуб - вокал
Алекс - бек-вокал
Денис Дмітрієв - бек-вокал
Олена J - жіночий вокал
Слава Fisher - ритм-гітара
Алекс Пашков - ритм-гітара
Володимир Письмений - акустична, ритм та соло-гітара, скрипка
Олександр Охремов - бас-гітара
Олександр Шульга - бас-гітара
Saturious - фортепіано, клавішні, орган
Андрій Пономарьов - клавішні
Іван Ткаленко - кобза
Андрій Ішунін - ударні
Олег "Свінні" - ударні

Пісні:
    1. Честь та крові
    2. Очi сповненi гнiву
    3. 29 Сiчня
    4. Народжений перемагати
    5. Останнiй дракар
    6. Я назавжди твiй
    7. Вирiй
    8. Вiтри меж мечiв
    9. Дорога в Вальгалу
    10. Політв'язень
    11. Коршун
    12. Лицар честі

Тривалість: 00:57:30
Мова: українська, російська (11)
Аудіо-кодек: FLAC
Бітрейт: 814 - 1082 кб/с
Джерело: власний ріп
EAC
Exact Audio Copy V1.0 beta 6 from 9. April 2015

EAC extraction logfile from 1. October 2015, 17:06

Сокира Перуна / ...і мертвим, і живим, і ненародженим...

Used drive : PLDS DVD-RW DS8A8SH Adapter: 1 ID: 1

Read mode : Secure
Utilize accurate stream : Yes
Defeat audio cache : Yes
Make use of C2 pointers : No

Read offset correction : 6
Overread into Lead-In and Lead-Out : No
Fill up missing offset samples with silence : Yes
Delete leading and trailing silent blocks : No
Null samples used in CRC calculations : Yes
Used interface : Native Win32 interface for Win NT & 2000

Used output format : User Defined Encoder
Selected bitrate : 128 kBit/s
Quality : High
Add ID3 tag : No
Command line compressor : C:\Program Files (x86)\Exact Audio Copy\Flac\flac.exe
Additional command line options : -V -8 %source%

TOC of the extracted CD

Track | Start | Length | Start sector | End sector
---------------------------------------------------------
1 | 0:00.00 | 6:25.46 | 0 | 28920
2 | 6:25.46 | 5:25.29 | 28921 | 53324
3 | 11:51.00 | 5:41.15 | 53325 | 78914
4 | 17:32.15 | 3:50.05 | 78915 | 96169
5 | 21:22.20 | 4:13.54 | 96170 | 115198
6 | 25:35.74 | 8:49.07 | 115199 | 154880
7 | 34:25.06 | 0:29.15 | 154881 | 157070
8 | 34:54.21 | 5:24.27 | 157071 | 181397
9 | 40:18.48 | 2:40.51 | 181398 | 193448
10 | 42:59.24 | 5:34.32 | 193449 | 218530
11 | 48:33.56 | 3:54.01 | 218531 | 236081
12 | 52:27.57 | 5:02.19 | 236082 | 258750

Range status and errors

Selected range

Filename E:\Сокира Перуна - ...і мертвим, і живим, і ненародженим....wav

Peak level 97.7 %
Extraction speed 3.7 X
Range quality 100.0 %
Test CRC E9017677
Copy CRC E9017677
Copy OK

No errors occurred

End of status report

==== Log checksum C9026289139674E012A868C1F1EBB6853468F9856FD4F716A70F112DD79B4DC6 ====
Також на Толоці Ви можете знайти:

Якщо Ви справді бажаєте підтримати українське - після прослуховування, якщо музика вам сподобалась, придбайте ліцензійний диск. Підтримаймо вітчизняних виконавців!


Срібний реліз (на рейтинг впливає 50% завантаженого)
 Трекер:    Зареєстрований   

Завантажити / скачати українську музику



відео для новачків



 Зареєстрований:   2015-10-05 22:26
 Розмір:   398 MB 
 Оцінка музики:   9/10 (Голосів: 13)
   
kolpavel 
VIP


З нами з: 04.05.14
Востаннє: 03.12.16
Повідомлень: 1059

2015-10-06 17:32  
2. Очi сповненi Ггнiву
Wolf1488 
VIP


З нами з: 20.10.09
Востаннє: 03.12.16
Повідомлень: 429

2015-10-06 18:52  
kolpavel
дякую, виправив

BigMuzzy 
Новенький


З нами з: 05.07.15
Востаннє: 13.11.16
Повідомлень: 2

2015-10-07 15:23  
(2015)???
Wolf1488 
VIP


З нами з: 20.10.09
Востаннє: 03.12.16
Повідомлень: 429

2015-10-07 16:45  
BigMuzzy
(2015)!!!

Lev 
VIP


З нами з: 14.10.09
Востаннє: 28.11.16
Повідомлень: 1819

2015-10-10 16:02  
варто вказати, що це ремастероване і частково перезаписане перевидання альбому з новими бонусами.
Ваш часовий пояс: GMT + 2 Години

Нова тема   Відповісти