Завантажити та скачати торренти українською


Raventale | Дискографiя (8 CD) (2006-2015) [FLAC] | Black Metal

Нові коментарі

Нова тема   Відповісти
Автор Повідомлення
kolpavel 
VIP


З нами з: 04.05.14
Востаннє: 03.12.16
Повідомлень: 1060

2015-10-04 17:52  
Raventale | Дискографiя (8 CD) (2006-2015) [FLAC] | Black Metal


Raventale | Дискографiя (8 CD) (2006-2015) [FLAC] | Black Metal


Стиль: Black Metal
Країна, місто: Україна, Київ
Сайти: Офіційний сайт

Виконавці:
Astaroth Merc - гітари.
Morthvarg Scar - гітари, вокал.
Athamas - бас, вокал.
Grim Me - клавішні.
Khaoth - барабани.

Альбоми:
2006 - На хрустальных качелях

Raventale | Дискографiя (8 CD) (2006-2015) [FLAC] | Black Metal


Треклист:
01. Пролог (2:01)
02. Огнем кромсая небеса (6:26)
03. Серой тоской пораскинулся Лес (13:41)
04. Небес смолистая чернь (7:12)
05. Дождя колыбель (2:08)
06. На хрустальных качелях (9:35)

Тривалість: 00:41:03
Мова: росiйська, інстр. (01).
Бітрейт: 983кб/с
Видавець: Backfire productions [BP-003]
ЕАС
Exact Audio Copy V0.99 prebeta 4 from 23. January 2008

EAC extraction logfile from 29. March 2011, 18:48

Raventale / На Хрустальных Качелях

Used drive : ASUS DRW-1612BL Adapter: 0 ID: 0

Read mode : Secure
Utilize accurate stream : Yes
Defeat audio cache : Yes
Make use of C2 pointers : No

Read offset correction : 6
Overread into Lead-In and Lead-Out : No
Fill up missing offset samples with silence : Yes
Delete leading and trailing silent blocks : No
Null samples used in CRC calculations : Yes
Used interface : Installed external ASPI interface

Used output format : User Defined Encoder
Selected bitrate : 768 kBit/s
Quality : High
Add ID3 tag : No
Command line compressor : C:\Program Files (x86)\Exact Audio Copy\Flac\flac.exe
Additional command line options : -6 -V %s

TOC of the extracted CD

Track | Start | Length | Start sector | End sector
---------------------------------------------------------
1 | 0:00.00 | 2:00.44 | 0 | 9043
2 | 2:00.44 | 6:26.03 | 9044 | 37996
3 | 8:26.47 | 13:40.41 | 37997 | 99537
4 | 22:07.13 | 7:12.26 | 99538 | 131963
5 | 29:19.39 | 2:08.30 | 131964 | 141593
6 | 31:27.69 | 9:34.67 | 141594 | 184710

Range status and errors

Selected range

Filename E:\My Doom\Raventale - На Хрустальных Качелях.wav

Peak level 100.0 %
Range quality 100.0 %
Test CRC 8AE0CB95
Copy CRC 8AE0CB95
Copy OK

No errors occurred

AccurateRip summary

Track 1 accurately ripped (confidence 3) [142E1518]
Track 2 accurately ripped (confidence 3) [C68DA460]
Track 3 accurately ripped (confidence 3) [EFC14FCF]
Track 4 accurately ripped (confidence 3) [313F63DC]
Track 5 accurately ripped (confidence 3) [8216604D]
Track 6 accurately ripped (confidence 3) [1548BED3]

All tracks accurately ripped

End of status report
2008 - Давно ушедших дней

Raventale | Дискографiя (8 CD) (2006-2015) [FLAC] | Black Metal


Треклист:
01. Скрежетом боли (Ностальгия) (09:13)
02. Давно ушедших дней (10:52)
03. Ввысь да за горизонт (Both Like Birds) (03:27)
04. Sunset of the Age (08:26)
05. Из времени черных колодцев (07:11)
06. Вдаль уходящий мой силуэт (05:21)

Тривалість: 00:44:34
Мова: росiйська, англiйська (4)
Бітрейт: 987 кб/с
Видавець: BadMoodMan Music [BMM. 015-08]
ЕАС
Exact Audio Copy V0.99 prebeta 4 from 23. January 2008

EAC extraction logfile from 29. March 2011, 19:24

Raventale / Давно ушедших дней

Used drive : ASUS DRW-1612BL Adapter: 0 ID: 0

Read mode : Secure
Utilize accurate stream : Yes
Defeat audio cache : Yes
Make use of C2 pointers : No

Read offset correction : 6
Overread into Lead-In and Lead-Out : No
Fill up missing offset samples with silence : Yes
Delete leading and trailing silent blocks : No
Null samples used in CRC calculations : Yes
Used interface : Installed external ASPI interface

Used output format : User Defined Encoder
Selected bitrate : 768 kBit/s
Quality : High
Add ID3 tag : No
Command line compressor : C:\Program Files (x86)\Exact Audio Copy\Flac\flac.exe
Additional command line options : -6 -V %s

TOC of the extracted CD

Track | Start | Length | Start sector | End sector
---------------------------------------------------------
1 | 0:00.00 | 9:13.69 | 0 | 41543
2 | 9:13.69 | 10:52.22 | 41544 | 90465
3 | 20:06.16 | 3:27.62 | 90466 | 106052
4 | 23:34.03 | 8:26.04 | 106053 | 144006
5 | 32:00.07 | 7:11.74 | 144007 | 176405
6 | 39:12.06 | 5:21.68 | 176406 | 200548

Range status and errors

Selected range

Filename E:\My Doom\Raventale - Давно ушедших дней.wav

Peak level 100.0 %
Range quality 100.0 %
Test CRC FD287C3E
Copy CRC FD287C3E
Copy OK

No errors occurred

AccurateRip summary

Track 1 accurately ripped (confidence 5) [42D7A391]
Track 2 accurately ripped (confidence 5) [28164992]
Track 3 accurately ripped (confidence 5) [48FE3FCA]
Track 4 accurately ripped (confidence 5) [17C56994]
Track 5 accurately ripped (confidence 5) [561A3F09]
Track 6 accurately ripped (confidence 5) [63C016DC]

All tracks accurately ripped

End of status report
2009 - Mortal Aspirations

Raventale | Дискографiя (8 CD) (2006-2015) [FLAC] | Black Metal


Треклист:
01. The Fall of the Mortal Aspirations (9:23)
02. Cosmos Inside (1:10)
03. My Birds of Misfortune (8:11)
04. A Fading Scent of Cinnamon And The Naked (9:32)
05. Watching a Luna Becomes Thy Face (1:11)
06. The Silhouette of Despair (6:33)
07. Escape to the Stars (3:27)
08. Suicide As the Destined End (10:55)
09. A Ravens Fade (2:13)

Тривалість: 00:52:36
Мова: англiйська
Бітрейт: 1000 кб/с
Видавець: BadMoodMan Music [BMM. 027-09]
ЕАС
Exact Audio Copy V0.99 prebeta 4 from 23. January 2008

EAC extraction logfile from 29. March 2011, 19:49

Raventale / Mortal Aspirations

Used drive : ASUS DRW-1612BL Adapter: 0 ID: 0

Read mode : Secure
Utilize accurate stream : Yes
Defeat audio cache : Yes
Make use of C2 pointers : No

Read offset correction : 6
Overread into Lead-In and Lead-Out : No
Fill up missing offset samples with silence : Yes
Delete leading and trailing silent blocks : No
Null samples used in CRC calculations : Yes
Used interface : Installed external ASPI interface

Used output format : User Defined Encoder
Selected bitrate : 768 kBit/s
Quality : High
Add ID3 tag : No
Command line compressor : C:\Program Files (x86)\Exact Audio Copy\Flac\flac.exe
Additional command line options : -6 -V %s

TOC of the extracted CD

Track | Start | Length | Start sector | End sector
---------------------------------------------------------
1 | 0:00.00 | 9:23.10 | 0 | 42234
2 | 9:23.10 | 1:10.01 | 42235 | 47485
3 | 10:33.11 | 8:10.71 | 47486 | 84306
4 | 18:44.07 | 9:32.21 | 84307 | 127227
5 | 28:16.28 | 1:10.72 | 127228 | 132549
6 | 29:27.25 | 6:33.12 | 132550 | 162036
7 | 36:00.37 | 3:26.68 | 162037 | 177554
8 | 39:27.30 | 10:54.67 | 177555 | 226671
9 | 50:22.22 | 2:13.28 | 226672 | 236674

Range status and errors

Selected range

Filename E:\My Doom\Raventale - Mortal Aspirations.wav

Peak level 100.0 %
Range quality 100.0 %
Test CRC DFD1CCFF
Copy CRC DFD1CCFF
Copy OK

No errors occurred

AccurateRip summary

Track 1 accurately ripped (confidence 2) [FC7985AB]
Track 2 accurately ripped (confidence 2) [7E97E09E]
Track 3 accurately ripped (confidence 2) [69121C92]
Track 4 accurately ripped (confidence 2) [90DADC93]
Track 5 accurately ripped (confidence 2) [28BB74DF]
Track 6 accurately ripped (confidence 2) [5D3AD502]
Track 7 accurately ripped (confidence 2) [434D9D8D]
Track 8 accurately ripped (confidence 2) [3193B948]
Track 9 accurately ripped (confidence 2) [C413529D]

All tracks accurately ripped

End of status report
2010 - After

Raventale | Дискографiя (8 CD) (2006-2015) [FLAC] | Black Metal


Треклист:
01. Gone (10:05)
02. After (5:01)
03. Youth (5:11)
04. Flames (6:53)
05. (unknown) (7:20)

Тривалість: 00:34:30
Мова: англiйська, російська (4).
Бітрейт: 935 кб/с
Видавець: BadMoodMan Music [BMM. 039-10]
ЕАС
Exact Audio Copy V0.99 prebeta 4 from 23. January 2008

EAC extraction logfile from 29. March 2011, 20:54

Raventale / After

Used drive : ASUS DRW-1612BL Adapter: 0 ID: 0

Read mode : Secure
Utilize accurate stream : Yes
Defeat audio cache : Yes
Make use of C2 pointers : No

Read offset correction : 6
Overread into Lead-In and Lead-Out : No
Fill up missing offset samples with silence : Yes
Delete leading and trailing silent blocks : No
Null samples used in CRC calculations : Yes
Used interface : Installed external ASPI interface

Used output format : User Defined Encoder
Selected bitrate : 768 kBit/s
Quality : High
Add ID3 tag : No
Command line compressor : C:\Program Files (x86)\Exact Audio Copy\Flac\flac.exe
Additional command line options : -6 -V %s

TOC of the extracted CD

Track | Start | Length | Start sector | End sector
---------------------------------------------------------
1 | 0:00.00 | 10:05.29 | 0 | 45403
2 | 10:05.29 | 5:01.36 | 45404 | 68014
3 | 15:06.65 | 5:10.42 | 68015 | 91306
4 | 20:17.32 | 6:52.41 | 91307 | 122247
5 | 27:09.73 | 7:20.10 | 122248 | 155257

Range status and errors

Selected range

Filename E:\My Doom\Raventale - After.wav

Peak level 100.0 %
Range quality 99.9 %
Test CRC 64E24254
Copy CRC 64E24254
Copy OK

No errors occurred

AccurateRip summary

Track 1 not present in database
Track 2 not present in database
Track 3 not present in database
Track 4 not present in database
Track 5 not present in database

None of the tracks are present in the AccurateRip database

End of status report
2011 - Bringer of Heartsore

Raventale | Дискографiя (8 CD) (2006-2015) [FLAC] | Black Metal


Треклист:
01. Anything is Void (7:27)
02. Twilight, the Vernal Dusk (7:25)
03. These Days of Sorrow (5:50)
04. Breathing the Scent of Death (4:21)
05. Prologue: Sailing to Further (1:21)
06. The Last Afterglow Burned (5:51)
07. Detachment and Solitude (6:16)
08. Epilogue: Alone With Heartsore (1:31)

Тривалість: 00:40:03
Мова: російська
Бітрейт: 990 кб/с
Видавець: BadMoodMan Music [BMM 045-11]
ЕАС
Exact Audio Copy V1.0 beta 3 from 29. August 2011

EAC extraction logfile from 14. June 2013, 12:21

Raventale / Bringer Of Heartsore

Used drive : ASUS DRW-1612BL Adapter: 0 ID: 0

Read mode : Secure
Utilize accurate stream : Yes
Defeat audio cache : Yes
Make use of C2 pointers : No

Read offset correction : 6
Overread into Lead-In and Lead-Out : No
Fill up missing offset samples with silence : Yes
Delete leading and trailing silent blocks : No
Null samples used in CRC calculations : Yes
Used interface : Installed external ASPI interface

Used output format : User Defined Encoder
Selected bitrate : 128 kBit/s
Quality : High
Add ID3 tag : No
Command line compressor : C:\Program Files\EAC\Exact Audio Copy\Flac\flac.exe
Additional command line options : -V -8 -T "Date=%year%" -T "Genre=%genre%" %source%

TOC of the extracted CD

Track | Start | Length | Start sector | End sector
---------------------------------------------------------
1 | 0:00.00 | 7:27.26 | 0 | 33550
2 | 7:27.26 | 7:25.30 | 33551 | 66955
3 | 14:52.56 | 5:50.25 | 66956 | 93230
4 | 20:43.06 | 4:20.38 | 93231 | 112768
5 | 25:03.44 | 1:21.14 | 112769 | 118857
6 | 26:24.58 | 5:51.27 | 118858 | 145209
7 | 32:16.10 | 6:16.34 | 145210 | 173443
8 | 38:32.44 | 1:30.56 | 173444 | 180249

Range status and errors

Selected range

Filename C:\darkbrides\Raventale - Bringer Of Heartsore.wav

Peak level 100.0 %
Extraction speed 7.8 X
Range quality 99.9 %
Test CRC 8E4B61E7
Copy CRC 8E4B61E7
Copy OK

No errors occurred

AccurateRip summary

Track 1 not present in database
Track 2 not present in database
Track 3 not present in database
Track 4 not present in database
Track 5 not present in database
Track 6 not present in database
Track 7 not present in database
Track 8 not present in database

None of the tracks are present in the AccurateRip database

End of status report

==== Log checksum 845CE31955DCCD180E6AEB716866293C5CA13C52740304D6389A1E9074487BD2 ====
2012 - Transcendence

Raventale | Дискографiя (8 CD) (2006-2015) [FLAC] | Black Metal


Треклист:
01. Shine (10:38)
02. Room Winter (11:18)
03. Without Movement (10:11)
04. Transcendence (13:13)

Тривалість: 00:45:21
Мова: англiйська
Бітрейт: 1104 кб/с
Видавець: BadMoodMan Music [BMM. 054-12]
ЕАС
Exact Audio Copy V1.0 beta 3 from 29. August 2011

EAC extraction logfile from 14. June 2013, 12:37

Raventale / Transcendence

Used drive : ASUS DRW-1612BL Adapter: 0 ID: 0

Read mode : Secure
Utilize accurate stream : Yes
Defeat audio cache : Yes
Make use of C2 pointers : No

Read offset correction : 6
Overread into Lead-In and Lead-Out : No
Fill up missing offset samples with silence : Yes
Delete leading and trailing silent blocks : No
Null samples used in CRC calculations : Yes
Used interface : Installed external ASPI interface

Used output format : User Defined Encoder
Selected bitrate : 128 kBit/s
Quality : High
Add ID3 tag : No
Command line compressor : C:\Program Files\EAC\Exact Audio Copy\Flac\flac.exe
Additional command line options : -V -8 -T "Date=%year%" -T "Genre=%genre%" %source%

TOC of the extracted CD

Track | Start | Length | Start sector | End sector
---------------------------------------------------------
1 | 0:00.00 | 10:38.07 | 0 | 47856
2 | 10:38.07 | 11:18.15 | 47857 | 98721
3 | 21:56.22 | 10:11.06 | 98722 | 144552
4 | 32:07.28 | 13:13.21 | 144553 | 204048

Range status and errors

Selected range

Filename C:\darkbrides\Raventale - Transcendence.wav

Peak level 100.0 %
Extraction speed 8.2 X
Range quality 100.0 %
Test CRC 3E661C6D
Copy CRC 3E661C6D
Copy OK

No errors occurred

AccurateRip summary

Track 1 not present in database
Track 2 not present in database
Track 3 not present in database
Track 4 not present in database

None of the tracks are present in the AccurateRip database

End of status report

==== Log checksum F1F691FA35F704909DF0D1C5A2F2F93D104EE2F5E392EB67EF8C60FA003F469D ====
2013 - Mémoires

Raventale | Дискографiя (8 CD) (2006-2015) [FLAC] | Black Metal


Треклист:
01. Пролог (01:08)
02. Огнём кромсая небеса (06:26)
03. Небес смолистая чернь (06:17)
04. My Birds Of Misfortune (08:08)
05. Nostalgia (07:47)
06. Дождя колыбель (02:08)
07. Серой тоской пораскинулся лес (08:10)
08. Gone (06:20)
09. Requiem F.D. (02:08)
10. Long Passed Days (09:04)
11. Suicide As The Destined End (09:48)

Тривалість: 01:07:30
Мова: росiйська (1-3,6,7), англiйська (4,5,8-11)
Бітрейт: 1104 кб/с
Видавець: Satanath Records / Dark East Productions (SAT055 DEP027)
ЕАС
Exact Audio Copy V1.0 beta 3 from 29. August 2011

EAC extraction logfile from 15. March 2015, 11:17

Raventale / Mémoires

Used drive : PIONEER DVD-RW DVR-111D Adapter: 2 ID: 0

Read mode : Secure
Utilize accurate stream : Yes
Defeat audio cache : Yes
Make use of C2 pointers : No

Read offset correction : 48
Overread into Lead-In and Lead-Out : No
Fill up missing offset samples with silence : Yes
Delete leading and trailing silent blocks : No
Null samples used in CRC calculations : Yes
Used interface : Installed external ASPI interface

Used output format : User Defined Encoder
Selected bitrate : 128 kBit/s
Quality : High
Add ID3 tag : No
Command line compressor : C:\Program Files (x86)\Exact Audio Copy\Flac\flac.exe
Additional command line options : -V -8 -T "Date=%year%" -T "Genre=%genre%" %source%

TOC of the extracted CD

Track | Start | Length | Start sector | End sector
---------------------------------------------------------
1 | 0:00.00 | 1:08.45 | 0 | 5144
2 | 1:08.45 | 6:26.20 | 5145 | 34114
3 | 7:34.65 | 6:17.53 | 34115 | 62442
4 | 13:52.43 | 8:08.14 | 62443 | 99056
5 | 22:00.57 | 7:47.63 | 99057 | 134144
6 | 29:48.45 | 2:08.22 | 134145 | 143766
7 | 31:56.67 | 8:10.61 | 143767 | 180577
8 | 40:07.53 | 6:20.42 | 180578 | 209119
9 | 46:28.20 | 2:08.16 | 209120 | 218735
10 | 48:36.36 | 9:04.74 | 218736 | 259609
11 | 57:41.35 | 9:48.22 | 259610 | 303731

Range status and errors

Selected range

Filename C:\Users\ZYKLON_B\Desktop\отправить\Raventale\2013 '' Memoires ''\Raventale - Mémoires.wav

Peak level 100.0 %
Extraction speed 1.9 X
Range quality 99.9 %
Test CRC 958AE215
Copy CRC 958AE215
Copy OK

No errors occurred

AccurateRip summary

Track 1 accurately ripped (confidence 1) [5016794F] (AR v2)
Track 2 accurately ripped (confidence 1) [9BD83FF7] (AR v2)
Track 3 accurately ripped (confidence 1) [FBA03A53] (AR v2)
Track 4 accurately ripped (confidence 1) [90077F33] (AR v2)
Track 5 accurately ripped (confidence 1) [6ED7C2C0] (AR v2)
Track 6 accurately ripped (confidence 1) [6892033A] (AR v2)
Track 7 accurately ripped (confidence 1) [64D9ACD6] (AR v2)
Track 8 accurately ripped (confidence 1) [121DBF9B] (AR v2)
Track 9 accurately ripped (confidence 1) [10348881] (AR v2)
Track 10 accurately ripped (confidence 1) [2BE2F13C] (AR v2)
Track 11 accurately ripped (confidence 1) [3481771F] (AR v2)

All tracks accurately ripped

End of status report

---- CUETools DB Plugin V2.1.5

[CTDB TOCID: 63HkB2rVWzrb8SEGBqnPo0.4ja8-] found
Submit result: 63HkB2rVWzrb8SEGBqnPo0.4ja8- has been confirmed
Track | CTDB Status
1 | (3/3) Accurately ripped
2 | (3/3) Accurately ripped
3 | (3/3) Accurately ripped
4 | (3/3) Accurately ripped
5 | (3/3) Accurately ripped
6 | (3/3) Accurately ripped
7 | (3/3) Accurately ripped
8 | (3/3) Accurately ripped
9 | (3/3) Accurately ripped
10 | (3/3) Accurately ripped
11 | (3/3) Accurately ripped

==== Log checksum 544DA3B465F6BB6EA4C0C04CAB52BC36A30745382074E3CEBDF4125E60F7EE48 ====
2015 - Dark Substance of Dharma

Raventale | Дискографiя (8 CD) (2006-2015) [FLAC] | Black Metal


Треклист:
01. Intra-Mantra (2:25)
02. Destroying the Seeds of Karma (8:38)
03. Dark Substance of Dharma (6:52)
04. Kali's Hunger (3:09)
05. Red Laugh's Walking (4:33)
06. I Am the Black Tara (8:56)
07. Last Moon Fermata (7:27)

Тривалість: 0:42:01
Мова: інструментал (1), англійська (2-4, 6-7), російська (5)
Бітрейт: 1001 кб/с
Видавець: BadMoodMan Music [BMM. 073-15]
ЕАС
Exact Audio Copy V1.1 from 23. June 2015

EAC extraction logfile from 23. February 2016, 1:51

Raventale / Dark Substance Of Dharma

Used drive : ASUS DRW-1612BL Adapter: 2 ID: 0

Read mode : Secure
Utilize accurate stream : Yes
Defeat audio cache : Yes
Make use of C2 pointers : No

Read offset correction : 6
Overread into Lead-In and Lead-Out : No
Fill up missing offset samples with silence : Yes
Delete leading and trailing silent blocks : No
Null samples used in CRC calculations : Yes
Used interface : Installed external ASPI interface

Used output format : User Defined Encoder
Selected bitrate : 128 kBit/s
Quality : High
Add ID3 tag : No
Command line compressor : C:\Program Files\EAC\Exact Audio Copy\Flac\flac.exe
Additional command line options : -V -8 -T "Date=%year%" -T "Genre=%genre%" %source%

TOC of the extracted CD

Track | Start | Length | Start sector | End sector
---------------------------------------------------------
1 | 0:00.00 | 2:25.26 | 0 | 10900
2 | 2:25.26 | 8:38.05 | 10901 | 49755
3 | 11:03.31 | 6:52.27 | 49756 | 80682
4 | 17:55.58 | 3:08.71 | 80683 | 94853
5 | 21:04.54 | 4:33.16 | 94854 | 115344
6 | 25:37.70 | 8:56.14 | 115345 | 155558
7 | 34:34.09 | 7:26.60 | 155559 | 189068

Range status and errors

Selected range

Filename C:\darkbrides\Raventale - Dark Substance Of Dharma.wav

Peak level 100.0 %
Extraction speed 7.8 X
Range quality 100.0 %
Test CRC 52E2D2E8
Copy CRC 52E2D2E8
Copy OK

No errors occurred

AccurateRip summary

Track 1 accurately ripped (confidence 1) [105F74C1] (AR v2)
Track 2 accurately ripped (confidence 1) [8D54ABCC] (AR v2)
Track 3 accurately ripped (confidence 1) [046E1771] (AR v2)
Track 4 accurately ripped (confidence 1) [23987398] (AR v2)
Track 5 accurately ripped (confidence 1) [D878CC57] (AR v2)
Track 6 accurately ripped (confidence 1) [5BDE4F72] (AR v2)
Track 7 accurately ripped (confidence 1) [0D2B5B06] (AR v2)

All tracks accurately ripped

End of status report

---- CUETools DB Plugin V2.1.6

[CTDB TOCID: yj_RBLdnKEy698OPPCthWYrRR7M-] found
Submit result: yj_RBLdnKEy698OPPCthWYrRR7M- has been confirmed
Track | CTDB Status
1 | (5/5) Accurately ripped
2 | (5/5) Accurately ripped
3 | (5/5) Accurately ripped
4 | (5/5) Accurately ripped
5 | (5/5) Accurately ripped
6 | (5/5) Accurately ripped
7 | (5/5) Accurately ripped

==== Log checksum 6737D4C4A6DD40B836A9F6E85F06CD6D72F4AF0802D1DD556DC922B7643F9452 ====
Тривалість: 06:07:38
Мова: iнструментальна, росiйська, англiйська.
Аудіо-кодек: FLAC
Бітрейт: 983-1104 кб/с
Джерело: трекер


Золотий реліз (завантажене не впливає на рейтинг)
 Трекер:    Зареєстрований   

Завантажити / скачати українську музику



відео для новачків



 Зареєстрований:   2016-05-18 20:50
 Розмір:   2.76 GB 
 Оцінка музики:   9.5/10 (Голосів: 4)
   
kolpavel 
VIP


З нами з: 04.05.14
Востаннє: 03.12.16
Повідомлень: 1060

2015-10-04 19:04  
18.05.2016 додав альбом "Dark Substance of Dharma".
Oleksa9 
Поважний учасник


З нами з: 17.05.12
Востаннє: 03.12.16
Повідомлень: 225

2015-10-04 19:11  
Ворожа мова в Україні потребує усебічної підтримки .... наприклад такими от темами.
Ваш часовий пояс: GMT + 2 Години

Нова тема   Відповісти