Завантажити та скачати торренти українською


Розлом Сан-Андреас / San Andreas (2015) 3D 1080p Ukr/Eng | Sub Eng [Half OverUnder]

Нові коментарі

Нова тема   Відповісти
Автор Повідомлення
Andick 
Модератор відео та координатор поширення


З нами з: 03.11.09
Востаннє: 06.12.16
Повідомлень: 1499

2015-10-03 22:53  
Розлом Сан-Андреас / San Andreas (2015) 3D 1080p Ukr/Eng | Sub Eng
[Half OverUnder]



Жанр: екшн, драма, трилер
Країна: США, Австралія, Канада



Кінокомпанія: Village Roadshow Pictures, New Line Cinema, RatPac-Dune Entertainment
Режисер: Бред Пейтон / Brad Peyton
Актори: Двейн Джонсон / Dwayne Johnson, Александра Даддаріо / Alexandra Daddario, Карла Ґуджіно / Carla Gugino, Колтон Гейнс / Colton Haynes, Пол Джаматті / Paul Giamatti, Кайлі Міноуґ / Kylie Minogue, Ванесса Росс / Vanessa Ross, Вілл Юн Лі / Will Yun Lee та інші

Сюжет:
Рей - пілот рятувального гелікоптера, який усе своє життя допомагав іншим людям. За весь час роботи він надивився на безліч моторошних речей і не раз опинявся в дуже складних ситуаціях. Незважаючи на всі перепони він поспішав на допомогу, навіть не припускаючи, що найстрашніше чекає його попереду. На Каліфорнію обрушується потужний землетрус, в результаті якого гинуть сотні людей і утворюється величезна тріщина в землі. У загальному хаосі Рею належить відшукати свою дочку, але зробити це буде дуже непросто. У надії, що його дитина все ще жива, він відправляється в смертельно небезпечну подорож через весь штат...

Тривалість: 01:54:28
Якість: 3D 1080p (Rip by Ash61)
Відео:
кодек:
розмір кадру: 1920 х 1080
бітрейт: 10 Мб/с
тип 3D: Half OverUnder / Вертикальна стереопара

Аудіо # 1:
мова: українська
переклад: професійний дубльований
кодек: 2.0 (стерео)
бітрейт: 192 кб/с

Інформація про дубляж
Переклад: Катерини Фуртас
Режисер дубляжу: Катерина Брайковська
Звукорежисер: Олександр Мостовенко
Звукорежисери перезапису: Максим Пономарчук, Роман Гоменюк
Ролі дублювали: Михайло Жонін, Оксана Поліщук, Андрій Федінчик, Максим Кондратюк, Катерина Сергеєва, Максим Чумак та інші.
Фільм дубльовано компанією Postmodern.

Аудіо # 2:
мова: англійська
переклад: оригінал
кодек: 5.1
бітрейт: 640 кб/с

Субтитри # 1,2:
мова: українська (форсовані), англійська (SDH)
тип: програмні (м'які)
формат: *.srt
MediaInfo
Код:
General
Unique ID                   : 192213178155140366979770029016041650902 (0x909AE95B701D3F27AA9C0243E013FAD6)
Complete name               : D:\Films\San Andreas (2015) [Ukr,Eng] 3D 1080p [Hurtom].mkv
Format                      : Matroska
Format version              : Version 4 / Version 2
File size                   : 8.85 GiB
Duration                    : 1h 54mn
Overall bit rate            : 11.1 Mbps
Movie name                  : Розлом Сан-Андреас / San Andreas (2015) 3D [Hurtom]
Encoded date                : UTC 2015-10-03 20:41:26
Writing application         : mkvmerge v8.4.0 ('A better way to fly') 64bit
Writing library             : libebml v1.3.1 + libmatroska v1.4.2
Attachements                : poster.jpg
DURATION                    : 01:43:51.684000000
NUMBER_OF_FRAMES            : 28
NUMBER_OF_BYTES             : 1180
_STATISTICS_WRITING_APP     : mkvmerge v8.4.0 ('A better way to fly') 64bit
_STATISTICS_WRITING_DATE_UT : 2015-10-03 20:41:26
_STATISTICS_TAGS            : BPS DURATION NUMBER_OF_FRAMES NUMBER_OF_BYTES

Video
ID                          : 1
Format                      : AVC
Format/Info                 : Advanced Video Codec
Format profile              : [email protected]
Format settings, CABAC      : Yes
Format settings, ReFrames   : 4 frames
Codec ID                    : V_MPEG4/ISO/AVC
Duration                    : 1h 54mn
Bit rate                    : 10.0 Mbps
Width                       : 1 920 pixels
Height                      : 1 080 pixels
Display aspect ratio        : 16:9
Frame rate mode             : Constant
Frame rate                  : 23.976 fps
Color space                 : YUV
Chroma subsampling          : 4:2:0
Bit depth                   : 8 bits
Scan type                   : Progressive
Bits/(Pixel*Frame)          : 0.201
Stream size                 : 8.00 GiB (90%)
Title                       : by Ash61
Writing library             : core 146 r2538 121396c
Encoding settings           : cabac=1 / ref=4 / deblock=1:-3:-3 / analyse=0x3:0x113 / me=umh / subme=10 / psy=1 / psy_rd=1.00:0.00 / mixed_ref=1 / me_range=32 / chroma_me=1 / trellis=2 / 8x8dct=1 / cqm=0 / deadzone=21,11 / fast_pskip=1 / chroma_qp_offset=-2 / threads=12 / lookahead_threads=3 / sliced_threads=0 / nr=0 / decimate=1 / interlaced=0 / bluray_compat=0 / constrained_intra=0 / bframes=10 / b_pyramid=2 / b_adapt=2 / b_bias=0 / direct=3 / weightb=1 / open_gop=0 / weightp=2 / keyint=250 / keyint_min=23 / scenecut=40 / intra_refresh=0 / rc_lookahead=60 / rc=crf / mbtree=1 / crf=15.5 / qcomp=0.70 / qpmin=0 / qpmax=69 / qpstep=4 / vbv_maxrate=40000 / vbv_bufsize=30000 / crf_max=0.0 / nal_hrd=none / filler=0 / frame-packing=4 / ip_ratio=1.40 / aq=1:0.70
Language                    : English
Default                     : Yes
Forced                      : No
DURATION                    : 01:54:28.654000000
NUMBER_OF_FRAMES            : 164683
NUMBER_OF_BYTES             : 8781089939
_STATISTICS_WRITING_APP     : mkvmerge v8.4.0 ('A better way to fly') 64bit
_STATISTICS_WRITING_DATE_UT : 2015-10-03 20:41:26
_STATISTICS_TAGS            : BPS DURATION NUMBER_OF_FRAMES NUMBER_OF_BYTES

Audio #1
ID                          : 2
Format                      : AC-3
Format/Info                 : Audio Coding 3
Mode extension              : CM (complete main)
Format settings, Endianness : Big
Codec ID                    : A_AC3
Duration                    : 1h 54mn
Bit rate mode               : Constant
Bit rate                    : 192 Kbps
Channel(s)                  : 2 channels
Channel positions           : Front: L R
Sampling rate               : 48.0 KHz
Bit depth                   : 16 bits
Compression mode            : Lossy
Stream size                 : 157 MiB (2%)
Title                       : Дубльовано компанією Postmodern [iTunes] [Hurtom]
Language                    : Ukrainian
Default                     : Yes
Forced                      : No

Audio #2
ID                          : 3
Format                      : AC-3
Format/Info                 : Audio Coding 3
Mode extension              : CM (complete main)
Format settings, Endianness : Big
Codec ID                    : A_AC3
Duration                    : 1h 54mn
Bit rate mode               : Constant
Bit rate                    : 640 Kbps
Channel(s)                  : 6 channels
Channel positions           : Front: L C R, Side: L R, LFE
Sampling rate               : 48.0 KHz
Bit depth                   : 16 bits
Compression mode            : Lossy
Stream size                 : 524 MiB (6%)
Title                       : Original
Language                    : English
Default                     : No
Forced                      : No

Text #1
ID                          : 4
Format                      : UTF-8
Codec ID                    : S_TEXT/UTF8
Codec ID/Info               : UTF-8 Plain Text
Title                       : Форсовані
Language                    : Ukrainian
Default                     : Yes
Forced                      : No

Text #2
ID                          : 5
Format                      : UTF-8
Codec ID                    : S_TEXT/UTF8
Codec ID/Info               : UTF-8 Plain Text
Title                       : SDH
Language                    : English
Default                     : No
Forced                      : No

Menu
00:00:00.000                : :1
00:09:29.944                : :2
00:18:47.209                : :3
00:30:10.100                : :4
00:40:08.823                : :5
00:50:18.098                : :6
00:59:44.498                : :7
01:11:27.366                : :8
01:19:43.612                : :9
01:30:40.810                : :10
01:39:56.490                : :11
01:47:10.924                : :12

Скріншоти










Увага!!!
Відео виконане в форматі 3D!

Рекомендується для перегляду на 3D телевізорах з пасивною технологією
Для перегляду на компютері потрібні анагліфні окуляри та стереоплеєр


Інструкції щодо перегляду відео у форматі 3D


Джерело: & Rutor


 Трекер:    Зареєстрований   

Завантажити / скачати фільм українською



відео для новачків



 Зареєстрований:   2015-10-03 22:53
 Розмір:   8.85 GB 
 Оцінка фільму:   5.3/10 (Голосів: 3)
   
Інші релізи
don pedro 
Попереджень: 1
Попереджень: 1 


З нами з: 29.06.11
Востаннє: 09.12.16
Повідомлень: 8769

2015-10-03 22:59  
Крім музики і Александри Даддаріо нічого цікавого немає.
pvm 
Свій


З нами з: 05.03.10
Востаннє: 06.12.16
Повідомлень: 136

2015-11-12 23:29  
Ну дуже слабенький і затягнутий фільм
Ваш часовий пояс: GMT + 2 Години

Нова тема   Відповісти