Завантажити та скачати торренти українською


Розлом Сан-Андреас / San Andreas (2015) 720p-mini

Нові коментарі

Нова тема   Відповісти
Автор Повідомлення
Drool 
VIP


З нами з: 17.04.10
Востаннє: 05.12.16
Повідомлень: 1263

2015-09-30 21:12  
Розлом Сан-Андреас / San Andreas (2015) 720p-mini

Жанр: екшн, драма, трилер
Країна: США, Австралія, Канада



Кінокомпанія: Village Roadshow Pictures, New Line Cinema, RatPac-Dune Entertainment
Режисер: Бред Пейтон
Актори: Двейн Джонсон, Александра Даддаріо, Карла Ґуджіно, Колтон Гейнс, Пол Джаматті, Кайлі Міноуґ, Ванесса Росс, Вілл Юн Лі та інші

Сюжет:
Через сильний землетрус в Каліфорнії загинули тисячі людей. Все місто охоплено панікою. Головний герой – пілот гелікоптера, який бачив весь жах на власні очі, у відчаї він намагається допомогти тим, хто вижив, але головне для нього – врятувати доньку...


Тривалість: 01:54:24
Якість: 720p-mini
Відео:
кодек:
розмір кадру: 1280x532
бітрейт: 2593 кб/с

Аудіо:
мова: українська
переклад: професійний дубльований
кодек: 5.1
бітрейт: 384 кб/с
Джерело звуку:
MediaInfo
General
Unique ID : 97104016176516129638200336299159908289 (0x490D8DA1A029B86E051FF9D9D8E2EFC1)
Complete name : /mnt/disk_250/Video/Films/San.Andreas.2015.Ukr.Dub..720p.UAGet.mkv
Format : Matroska
Format version : Version 4 / Version 2
File size : 2.38 GiB
Duration : 1h 54mn
Overall bit rate : 2 976 Kbps
Movie name : Розлом Сан-Андреас / San Andreas (2015) 720p-mini -=UAGet=-
Encoded date : UTC 2015-11-09 10:32:34
Writing application : mkvmerge v8.4.0 ('A better way to fly') 32bit
Writing library : libebml v1.3.1 + libmatroska v1.4.2
TITLE : Розлом Сан-Андреас / San Andreas (2015) 720p-mini -=UAGet=-
ARTIST : Дуейн Джонсон, Карла Гуджино, Олександра Даддаріо, Йоан Гріффіт, Арчі Панджабі..
DIRECTOR : Бред Пейтон
DATE_RELEASED : 2015
GENRE : драма, екшн, трилер
SYNOPSIS : Через сильний землетрус в Каліфорній загинули тисячи людей. Все місто охоплено панікою. Головний герой – пілот гелікоптера, який бачив весь жах на власні очі, у відчаї він намагається допомогти тим, хто вижив, але головне для нього – врятувати доньку.
DURATION : 01:54:30.304000000
NUMBER_OF_FRAMES : 214697
NUMBER_OF_BYTES : 329774592
_STATISTICS_WRITING_APP : mkvmerge v8.4.0 ('A better way to fly') 32bit
_STATISTICS_WRITING_DATE_UTC : 2015-11-09 10:32:34
_STATISTICS_TAGS : BPS DURATION NUMBER_OF_FRAMES NUMBER_OF_BYTES

Video
ID : 1
Format : AVC
Format/Info : Advanced Video Codec
Format profile : [email protected]
Format settings, CABAC : Yes
Format settings, ReFrames : 11 frames
Codec ID : V_MPEG4/ISO/AVC
Duration : 1h 54mn
Bit rate : 2 593 Kbps
Width : 1 280 pixels
Height : 532 pixels
Display aspect ratio : 2.40:1
Frame rate mode : Constant
Frame rate : 23.976 fps
Color space : YUV
Chroma subsampling : 4:2:0
Bit depth : 8 bits
Scan type : Progressive
Bits/(Pixel*Frame) : 0.159
Stream size : 2.03 GiB (85%)
Title : Розлом Сан-Андреас / San Andreas (2015) 720p-mini -=UAGet=-
Writing library : core 142 r2389 956c8d8
Encoding settings : cabac=1 / ref=12 / deblock=1:-3:-3 / analyse=0x3:0x133 / me=umh / subme=11 / psy=1 / psy_rd=1,10:0,15 / mixed_ref=1 / me_range=64 / chroma_me=1 / trellis=2 / 8x8dct=1 / cqm=0 / deadzone=21,11 / fast_pskip=0 / chroma_qp_offset=-3 / threads=6 / lookahead_threads=1 / sliced_threads=0 / nr=0 / decimate=1 / interlaced=0 / bluray_compat=0 / constrained_intra=0 / bframes=12 / b_pyramid=1 / b_adapt=2 / b_bias=0 / direct=3 / weightb=1 / open_gop=0 / weightp=2 / keyint=240 / keyint_min=24 / scenecut=40 / intra_refresh=0 / rc=2pass / mbtree=0 / bitrate=2593 / ratetol=1,0 / qcomp=1,00 / qpmin=0 / qpmax=69 / qpstep=4 / cplxblur=20,0 / qblur=0,5 / ip_ratio=1,40 / pb_ratio=1,30 / aq=2:0,60
Default : Yes
Forced : Yes
Color range : Limited
Color primaries : BT.709
Transfer characteristics : BT.709
Matrix coefficients : BT.709

Audio
ID : 2
Format : AC-3
Format/Info : Audio Coding 3
Mode extension : CM (complete main)
Format settings, Endianness : Big
Codec ID : A_AC3
Duration : 1h 54mn
Bit rate mode : Constant
Bit rate : 384 Kbps
Channel(s) : 6 channels
Channel positions : Front: L C R, Side: L R, LFE
Sampling rate : 48.0 KHz
Compression mode : Lossy
Stream size : 314 MiB (13%)
Title : Рідна мова ( 5.1 @ 384 kbps) DVD
Language : Ukrainian
Default : Yes
Forced : Yes
Скріншоти




Реліз від:
Особиста оцінка: 6 - третій сорт - не брак


 Трекер:    Зареєстрований   

Завантажити / скачати фільм українською



відео для новачків



 Зареєстрований:   2015-11-09 13:07
 Розмір:   2.38 GB 
 Оцінка фільму:   8.9/10 (Голосів: 14)
   
bot 
робот


З нами з: 30.09.07
Востаннє: 26.05.05
Повідомлень: 16002

2015-09-30 21:12  
Тему перенесено з Фільми в HD до форуму Анонси релізів


Drool

bot 
робот


З нами з: 30.09.07
Востаннє: 26.05.05
Повідомлень: 16002

2015-10-05 09:23  
Тему перенесено з Анонси релізів до форуму Фільми в HD


Drool

Drool 
VIP


З нами з: 17.04.10
Востаннє: 05.12.16
Повідомлень: 1263

2015-11-09 13:10  
Оновлено звукову доріжку на ліцензійну з DVD.
umka1m 
Новенький


З нами з: 06.03.15
Востаннє: 05.12.16
Повідомлень: 10

2016-01-02 22:29  
Цитата:
Оновлено звукову доріжку на ліцензійну з DVD.

Вітаю то на двд 384кб? бо на роздачі двд9 448 кб а всюди 384 ??? запутався трохи.

Drool 
VIP


З нами з: 17.04.10
Востаннє: 05.12.16
Повідомлень: 1263

2016-01-04 01:40  
umka1m написано:
то на двд 384кб? бо на роздачі двд9 448 кб а всюди 384 ??? запутався трохи.

На роздачі DVD9 або помилка, або роздутий бітрейт.

olthik 
Частий відвідувач


З нами з: 02.03.16
Востаннє: 05.12.16
Повідомлень: 33

2016-04-02 19:55  
Напружений фільм - катастрофа, наруга триває протягом фільму. Ох вже ці американці, вміють же зфантазувати і комп’ютеризовати.
Ваш часовий пояс: GMT + 2 Години

Нова тема   Відповісти