Завантажити та скачати торренти українською


VA - Кращі новинки української естради (2015) [FLAC] | Pop

Нові коментарі

Нова тема   Відповісти
Автор Повідомлення
kolpavel 
VIP


З нами з: 04.05.14
Востаннє: 08.12.16
Повідомлень: 1059

2015-09-30 19:30  
VA - Кращі новинки української естради (2015) [FLAC] | Pop


VA - Кращі новинки української естради (2015) [FLAC] | Pop


Стиль: Pop
Країна, місто: Україна
Видавець: Ferum-Music

Пісні:
    [04:16] 01. TIK - Mein Liebe
    [03:19] 02. Гайдамаки feat.Cai Caslavinieri - Співай соловей
    [04:05] 03. Alyosha & Влад Дарвин - Троянди
    [02:33] 04. Dzidzio - Я їду до мами
    [03:12] 05. Марина Захарченко - Відпусти
    [02:57] 06. Інше небо - Здивуй мене
    [03:33] 07. Ірина Федишин - Чорні очка
    [02:45] 08. Цвіт кульбаби - Королєва
    [03:42] 09. Антитіла - Все красиво
    [03:32] 10. Киевэлектро - Весняне весілля
    [03:05] 11. TIK - Сірожа з Ружина
    [03:27] 12. Наталка Карпа - Літо-літо
    [03:56] 13. Марія Яремчук - До тебе
    [03:16] 14. Oleynik - Засинай
    [03:23] 15. Катя Брайт - Індіго нової весни
    [03:56] 16. Мері - Падала зоря
    [03:50] 17. Ірина Зінковська - Льон-льонок
    [03:22] 18. Олександр Кварта - Боже, як гарно
    [03:55] 19. Нумер 482 - Важлива
    [03:48] 20. Marija Cheba - Дівчина
    [03:23] 21. The ВЙО - Кіровоград
    [04:28] 22. Океан Ельзи - Не твоя війна

Тривалість: 01:17:30
Мова: українська
Аудіо-кодек: FLAC
Бітрейт: 914 кб/с
Джерело: інший трекер
Додаткова інформація:
Лог
Exact Audio Copy V1.0 beta 3 from 29. August 2011

Отчёт EAC об извлечении, выполненном 26. сентября 2015, 12:17

Various Artists / Кращі новонки української естради

Дисковод: TSSTcorpCDDVDW TS-L633J Adapter: 0 ID: 1

Режим чтения : Достоверность
Использование точного потока : Да
Отключение кэша аудио : Да
Использование указателей C2 : Нет

Коррекция смещения при чтении : 6
Способность читать области Lead-in и Lead-out : Нет
Заполнение пропущенных сэмплов тишиной : Да
Удаление блоков с тишиной в начале и конце : Нет
При вычислениях CRC использовались нулевые сэмплы : Да
Интерфейс : Встроенный Win32-интерфейс для Win NT/2000

Выходной формат : Пользовательский кодировщик
Выбранный битрейт : 1024 kBit/s
Качество : Высокий
Добавление ID3-тега : Нет
Утилита сжатия : C:\Program Files (x86)\Exact Audio Copy\FLAC\FLAC.EXE
Дополнительные параметры : -8 -V -T "ARTIST=%artist%" -T "TITLE=%title%" -T "ALBUM=%albumtitle%" -T "DATE=%year%" -T "TRACKNUMBER=%tracknr%" -T "GENRE=%genre%" -T "COMMENT=%comment%" -T "BAND=%albuminterpret%" -T "ALBUMARTIST=%albuminterpret%" -T "COMPOSER=%composer%" %haslyrics%--tag-from-file=LYRICS="%lyricsfile%"%haslyrics% -T "DISCNUMBER=%cdnumber%" -T "TOTALDISCS=%totalcds%" -T "TOTALTRACKS=%numtracks%" %hascover%--picture="%coverfile%"%hascover% %source% -o %dest%

TOC извлечённого CD

Трек | Старт | Длительность | Начальный сектор | Конечный сектор
---------------------------------------------------------------------
1 | 0:00.00 | 4:15.56 | 0 | 19180
2 | 4:15.56 | 3:18.13 | 19181 | 34043
3 | 7:33.69 | 4:04.05 | 34044 | 52348
4 | 11:37.74 | 2:32.01 | 52349 | 63749
5 | 14:10.00 | 3:11.19 | 63750 | 78093
6 | 17:21.19 | 2:56.66 | 78094 | 91359
7 | 20:18.10 | 3:32.74 | 91360 | 107333
8 | 23:51.09 | 2:44.06 | 107334 | 119639
9 | 26:35.15 | 3:41.52 | 119640 | 136266
10 | 30:16.67 | 3:31.16 | 136267 | 152107
11 | 33:48.08 | 3:04.42 | 152108 | 165949
12 | 36:52.50 | 3:26.03 | 165950 | 181402
13 | 40:18.53 | 3:55.22 | 181403 | 199049
14 | 44:14.00 | 3:16.00 | 199050 | 213749
15 | 47:30.00 | 3:22.23 | 213750 | 228922
16 | 50:52.23 | 3:55.08 | 228923 | 246555
17 | 54:47.31 | 3:49.14 | 246556 | 263744
18 | 58:36.45 | 3:21.09 | 263745 | 278828
19 | 61:57.54 | 3:54.11 | 278829 | 296389
20 | 65:51.65 | 3:47.19 | 296390 | 313433
21 | 69:39.09 | 3:22.26 | 313434 | 328609
22 | 73:01.35 | 4:27.52 | 328610 | 348686

Характеристики диапазона извлечения и сообщения об ошибках

Выбранный диапазон

Имя файла D:\Download\VA - Кращі новонки української естради-2015[FLAC]\Various Artists - Кращі новонки української естради.wav

Пиковый уровень 91.2 %
Скорость извлечения 3.4 X
Качество диапазона 100.0 %
CRC теста 3D9C6005
CRC копии 3D9C6005
Копирование... OK

Ошибок не произошло

AccurateRip: сводка

Трек 1 отсутствует в базе данных
Трек 2 отсутствует в базе данных
Трек 3 отсутствует в базе данных
Трек 4 отсутствует в базе данных
Трек 5 отсутствует в базе данных
Трек 6 отсутствует в базе данных
Трек 7 отсутствует в базе данных
Трек 8 отсутствует в базе данных
Трек 9 отсутствует в базе данных
Трек 10 отсутствует в базе данных
Трек 11 отсутствует в базе данных
Трек 12 отсутствует в базе данных
Трек 13 отсутствует в базе данных
Трек 14 отсутствует в базе данных
Трек 15 отсутствует в базе данных
Трек 16 отсутствует в базе данных
Трек 17 отсутствует в базе данных
Трек 18 отсутствует в базе данных
Трек 19 отсутствует в базе данных
Трек 20 отсутствует в базе данных
Трек 21 отсутствует в базе данных
Трек 22 отсутствует в базе данных

Ни одного трека нет в базе AccurateRip

Конец отчёта

==== Контрольная сумма отчёта 140AB39EC31BC91A492A41FF2CE56FB7B3E5743EA75958B0DBBD2F5B4BA19E33 ====
(.CUE)
REM GENRE рор
REM DATE 2015
REM DISCID 3B122916
REM COMMENT "ExactAudioCopy v1.0b3"
PERFORMER "Various Artists"
TITLE "Кращі новонки української естради"
FILE "Various Artists - Кращі новонки української естради.flac" WAVE
TRACK 01 AUDIO
TITLE "Mein Liebe"
PERFORMER "TIK"
INDEX 01 00:00:00
TRACK 02 AUDIO
TITLE "Співай соловей"
PERFORMER "Гайдамаки feat.Cai Caslavinieri"
INDEX 00 04:13:56
INDEX 01 04:15:56
TRACK 03 AUDIO
TITLE "Троянди"
PERFORMER "Alyosha & Влад Дарвин"
INDEX 00 07:31:69
INDEX 01 07:33:69
TRACK 04 AUDIO
TITLE "Я їду до мами"
PERFORMER "Dzidzio"
INDEX 00 11:35:74
INDEX 01 11:37:74
TRACK 05 AUDIO
TITLE "Відпусти"
PERFORMER "Марина Захарченко"
INDEX 00 14:08:00
INDEX 01 14:10:00
TRACK 06 AUDIO
TITLE "Здивуй мене"
PERFORMER "Інше небо"
INDEX 00 17:19:19
INDEX 01 17:21:19
TRACK 07 AUDIO
TITLE "Чорні очка"
PERFORMER "Ірина Федишин"
INDEX 00 20:16:10
INDEX 01 20:18:10
TRACK 08 AUDIO
TITLE "Королєва"
PERFORMER "Цвіт кульбаби"
INDEX 00 23:49:09
INDEX 01 23:51:09
TRACK 09 AUDIO
TITLE "Все красиво"
PERFORMER "Антитіла"
INDEX 00 26:33:15
INDEX 01 26:35:15
TRACK 10 AUDIO
TITLE "Весняне весілля"
PERFORMER "Киевэлектро"
INDEX 00 30:14:67
INDEX 01 30:16:67
TRACK 11 AUDIO
TITLE "Сірожа з Ружина"
PERFORMER "TIK"
INDEX 00 33:46:08
INDEX 01 33:48:08
TRACK 12 AUDIO
TITLE "Літо-літо"
PERFORMER "Наталка Карпа"
INDEX 00 36:50:50
INDEX 01 36:52:50
TRACK 13 AUDIO
TITLE "До тебе"
PERFORMER "Марія Яремчук"
INDEX 00 40:16:53
INDEX 01 40:18:53
TRACK 14 AUDIO
TITLE "Засинай"
PERFORMER "Oleynik"
INDEX 00 44:12:00
INDEX 01 44:14:00
TRACK 15 AUDIO
TITLE "Індіго нової весни"
PERFORMER "Катя Брайт"
INDEX 00 47:28:00
INDEX 01 47:30:00
TRACK 16 AUDIO
TITLE "Падала зоря"
PERFORMER "Мері"
INDEX 00 50:50:23
INDEX 01 50:52:23
TRACK 17 AUDIO
TITLE "Льон-льонок"
PERFORMER "Ірина Зінковська"
INDEX 00 54:45:31
INDEX 01 54:47:31
TRACK 18 AUDIO
TITLE "Боже, як гарно"
PERFORMER "Олександр Кварта"
INDEX 00 58:34:45
INDEX 01 58:36:45
TRACK 19 AUDIO
TITLE "Важлива"
PERFORMER "Нумер 482"
INDEX 00 61:55:54
INDEX 01 61:57:54
TRACK 20 AUDIO
TITLE "Дівчина"
PERFORMER "Marija Cheba"
INDEX 00 65:49:65
INDEX 01 65:51:65
TRACK 21 AUDIO
TITLE "Кіровоград"
PERFORMER "The ВЙО"
INDEX 00 69:37:09
INDEX 01 69:39:09
TRACK 22 AUDIO
TITLE "Не твоя війна"
PERFORMER "Океан Ельзи"
INDEX 00 72:59:35
INDEX 01 73:01:35


Якщо Ви справді бажаєте підтримати українське - після прослуховування, якщо музика вам сподобалась, придбайте ліцензійний диск. Підтримаймо вітчизняних виконавців!


Срібний реліз (на рейтинг впливає 50% завантаженого)
 Трекер:    Зареєстрований   

Завантажити / скачати українську музику



відео для новачків



 Зареєстрований:   2015-09-30 19:30
 Розмір:   508 MB 
 Оцінка музики:   9.6/10 (Голосів: 21)
   
kolpavel 
VIP


З нами з: 04.05.14
Востаннє: 08.12.16
Повідомлень: 1059

2015-09-30 20:09  
apelja 
Новенький


З нами з: 02.05.09
Востаннє: 07.10.16
Повідомлень: 10

2015-11-13 14:31  
неправильний cue файл, виправте будь ласка
kolpavel 
VIP


З нами з: 04.05.14
Востаннє: 08.12.16
Повідомлень: 1059

2015-11-19 17:11  
Неправильний cue файл? А що вас в ньому не влаштовує?

Ааа, ви про Кращi новонки i Кращi новинки - то така дрiбниця. Хто туди загляда?

curtsc 
Новенький


З нами з: 25.03.14
Востаннє: 20.11.16
Повідомлень: 1

2016-08-09 19:22  
kolpavel
Чудова збірка, але дійсно виправте cue файл, оскільки зовсім не вірно відкривається в aimp

Ваш часовий пояс: GMT + 2 Години

Нова тема   Відповісти