Завантажити та скачати торренти українською


Перше солодке кохання / Hi! School - Love On / 하이스쿨 - 러브온 (серії 1-20 з 20) (2014) AVC

Нові коментарі

Нова тема   Відповісти
Останній раз роздавалося bogdan8249 (2016-12-04)
Автор Повідомлення
bogdan8249 
Відео Гуртом - фільмокрай
Відео Гуртом - фільмокрай


З нами з: 09.08.08
Востаннє: 04.12.16
Повідомлень: 1112

2015-09-30 02:02  
Перше солодке кохання / Hi! School - Love On / 하이스쿨 - 러브온 (серії 1-20 з 20) (2014) AVC

Перше солодке кохання / Hi! School - Love On / 하이스쿨 - 러브온 (серії 1-20 з 20) (2014) AVC

Жанр: романтичний, фантастика
Країна: Південна Корея



Кінокомпанія / телеканал: KBS2
Режисер: Sung Joon-Hae
Актори/ролі озвучують: Nam Woo-Hyun, Kim Sae-Ron, Lee Sung-Yeol, Choi Soo-Rin, Jeong Jae-Sun, Jo Yeon-Woo, Shin Hyun-Tak, Kim Min-Suk, Kim Young-Jae, Kim Min-Young

Сюжет:
Це романтично-фантастична історія про ангела, що вирішила стати людиною, щоб врятувати школяра від небезпеки. Яскраві та кумедні стосунки між безсмертним ангелом і старшокласниками не залишать вас байдужими.


Тривалість: 1 серія: ~53 хв (цілком серій: 20)
Перелік серій
01. Destiny? Irresistible trouble!
02. Encounter? Mysterious coincidence!
03. Excitement? The unstoppable flutter!
04. Baby steps? First step when learning to love!
05. Drawing a line? Drawing a line to cross it!
06. Confession? Always the wrong timing!
07. Suspicion? Wanting to believe that it's not true!
08. Regret? All you remember is the bad!
09. Consolation? The hope that I could take all your pain!
10. One-sided love? When you force yourself to look away!
11. Secret? The heavier the truth the better it floats!
12. Favor? It breaks my heart when I can't do it!
13. Choice? The pain of losing all for you!
14. Longing? You who I keep running into!
15. Wounds? I give you wounds but it hurts me more!
16. Sincerity? Something I want to hide for your sake!
17. Love? I wish I had said, "I love you!"
18. Friendship? You're just another me!
19. Goodbye? Only to be back again!
20. Fate? The distance between your heart and mine: 3 inches!
MediaInfo
General
Complete name : E:\Hi! School - Love On (20014)\Перше солодке кохання 하이스쿨러브온 Hi school love on - 8 серія (Укр. озвучка).mkv
Format : AVI
Format/Info : Audio Video Interleave
File size : 1.09 GiB
Duration : 53mn 36s
Overall bit rate : 2 909 Kbps
Writing application : VirtualDubMod 1.5.10.3 | www.virtualdub-fr.org || (build 2550/release)
Writing library : VirtualDubMod build 2550/release

Video
ID : 0
Format : AVC
Format/Info : Advanced Video Codec
Format profile : [email protected]
Format settings, CABAC : Yes
Format settings, ReFrames : 4 frames
Codec ID : H264
Duration : 53mn 36s
Bit rate : 2 577 Kbps
Nominal bit rate : 3 000 Kbps
Width : 1 280 pixels
Height : 720 pixels
Display aspect ratio : 16:9
Frame rate mode : Variable
Frame rate : 29.970 fps
Color space : YUV
Chroma subsampling : 4:2:0
Bit depth : 8 bits
Scan type : Progressive
Bits/(Pixel*Frame) : 0.093
Stream size : 988 MiB (89%)
Writing library : core 112
Encoding settings : cabac=1 / ref=3 / deblock=1:-1:-1 / analyse=0x3:0x113 / me=hex / subme=6 / psy=1 / psy_rd=1.00:1.00 / mixed_ref=1 / me_range=16 / chroma_me=1 / trellis=1 / 8x8dct=1 / cqm=0 / deadzone=21,11 / fast_pskip=0 / chroma_qp_offset=-4 / threads=12 / sliced_threads=0 / nr=0 / decimate=1 / interlaced=0 / constrained_intra=0 / bframes=3 / b_pyramid=2 / b_adapt=1 / b_bias=1 / direct=3 / weightb=1 / open_gop=0 / weightp=2 / keyint=299 / keyint_min=25 / scenecut=1 / intra_refresh=0 / rc_lookahead=40 / rc=cbr / mbtree=1 / bitrate=3000 / ratetol=1.0 / qcomp=0.60 / qpmin=1 / qpmax=51 / qpstep=4 / vbv_maxrate=3000 / vbv_bufsize=1950 / ip_ratio=1.40 / aq=1:1.00 / nal_hrd=none

Audio
ID : 1
Format : MPEG Audio
Format version : Version 1
Format profile : Layer 3
Codec ID : 55
Codec ID/Hint : MP3
Duration : 53mn 36s
Bit rate mode : Constant
Bit rate : 320 Kbps
Channel(s) : 2 channels
Sampling rate : 44.1 KHz
Compression mode : Lossy
Stream size : 123 MiB (11%)
Alignment : Split accross interleaves
Interleave, duration : 33 ms (1.00 video frame)
Interleave, preload duratio : 500 ms
Якість:
Відео:
кодек:
розмір кадру: 1280 х 720
бітрейт: ~2600 кб/с

Аудіо:
мова: українська
переклад: одноголосий закадровий
кодек: MP3
бітрейт: 320 кб/с

Джерело озвучення:
Скріншоти







Джерело:
Особиста оцінка: 10 - без зайвих вагань рекомендую всім!


Авторський реліз (завантажувати можна без реєстрації)
 Трекер:    Зареєстрований   

Завантажити / скачати серіал українською



відео для новачків



 Зареєстрований:   2015-09-30 02:02
 Розмір:   21.46 GB 
 Оцінка серіалу:   9.6/10 (Голосів: 5)
   
bogdan8249 
Відео Гуртом - фільмокрай
Відео Гуртом - фільмокрай


З нами з: 09.08.08
Востаннє: 04.12.16
Повідомлень: 1112

2015-10-02 00:21  
Перевірте вже нарешті хтось.
Konfucius 
Управління
Управління


З нами з: 30.09.07
Востаннє: 04.12.16
Повідомлень: 4739

2015-10-02 09:26  
В заголовку треба дописати "1 сезон" або "серії 1-20", також потрібно добавити mediainfo.
Ваш часовий пояс: GMT + 2 Години

Нова тема   Відповісти