Завантажити та скачати торренти українською


Ромео та Джульєтта / Romeo and Juliet (2013) 1080p Ukr/Eng | Sub Ukr

Нові коментарі

Нова тема   Відповісти
Автор Повідомлення
demotyvator 
Частий відвідувач


З нами з: 24.02.12
Востаннє: 07.12.16
Повідомлень: 35

2015-09-22 12:00  
Ромео та Джульєтта / Romeo and Juliet (2013) 1080p Ukr/Eng | Sub Ukr

Ромео та Джульєтта / Romeo and Juliet (2013) 1080p Ukr/Eng | Sub Ukr


Жанр: драма, романтичний
Країна: Великобританія, Італія, Швейцарія



Кінокомпанія: Amber Entertainment, Echo Lake Entertainment, Indiana Production Company
Режисер: Карло Карлей / Carlo Carlei
Актори: Дуґлас Бут / Douglas Booth, Гейлі Стейнфілд / Hailee Steinfeld, Дам'єн Льюіс / Damian Lewis, Коді Сміт-МакФі / Kodi Smit-McPhee, Ед Вествік / Ed Westwick, Пол Джаматті / Paul Giamatti, Лаура Моранте / Laura Morante, Томас Арана / Tomas Arana та інші

Сюжет:
Велика трагедія Вільяма Шекспіра в розкішному класичному виконанні. Верона. Епоха Раннього Відродження. Юнак і дівчина з ворогуючих сімей закохуються одне в одного, і звісно ж рідні закоханих проти того, аби ті разом були. Лише смерть на піку забороненої пристрасті допомагає Ромео і Джульєтті врятувати своє кохання...


Тривалість: 01:58:32
Якість: 1080p
Відео:
кодек:
розмір кадру: 1 920 х 800
бітрейт: 8 835 кб/с

Аудіо # 1:
мова: українська
переклад: багатоголосий закадровий
кодек: 2.0
бітрейт: 192 кб/с

Аудіо # 2:
мова: англійська
переклад: оригінал
кодек: 5.1
бітрейт: 1 509 кб/с

Субтитри:
мова: англійська
тип: пререндерні
формат: *.pgs
MediaInfo
General
Unique ID : 227338553640980698294236766015482468582 (0xAB07D0137841C107B6160C9B98CF98E6)
Complete name : H:\Ромео та Джульєтта\Romeo and Juliet (2013) 1080p [Ukr, Eng. Sub Eng] [demotyvator] [Hurtom].mkv
Format : Matroska
Format version : Version 2
File size : 8.74 GiB
Duration : 1h 58mn
Overall bit rate : 10.6 Mbps
Movie name : Romeo and Juliet от School_Boy
Encoded date : UTC 2015-09-22 07:47:48
Writing application : mkvmerge v5.6.0 ('Kenya Kane') built on May 27 2012 16:44:04
Writing library : libebml v1.2.3 + libmatroska v1.3.0

Video
ID : 1
Format : AVC
Format/Info : Advanced Video Codec
Format profile : [email protected]
Format settings, CABAC : Yes
Format settings, ReFrames : 4 frames
Codec ID : V_MPEG4/ISO/AVC
Duration : 1h 58mn
Bit rate : 8 835 Kbps
Width : 1 920 pixels
Height : 800 pixels
Display aspect ratio : 2.40:1
Frame rate mode : Constant
Frame rate : 23.976 fps
Color space : YUV
Chroma subsampling : 4:2:0
Bit depth : 8 bits
Scan type : Progressive
Bits/(Pixel*Frame) : 0.240
Stream size : 7.15 GiB (82%)
Title : Romeo and Juliet
Writing library : core 138 r2358 9e941d1
Encoding settings : cabac=1 / ref=4 / deblock=1:-3:-2 / analyse=0x3:0x113 / me=umh / subme=11 / psy=1 / psy_rd=1.00:0.00 / mixed_ref=1 / me_range=32 / chroma_me=1 / trellis=2 / 8x8dct=1 / cqm=0 / deadzone=21,11 / fast_pskip=1 / chroma_qp_offset=-2 / threads=4 / lookahead_threads=1 / sliced_threads=0 / nr=0 / decimate=1 / interlaced=0 / bluray_compat=0 / constrained_intra=0 / bframes=4 / b_pyramid=2 / b_adapt=2 / b_bias=0 / direct=3 / weightb=1 / open_gop=0 / weightp=2 / keyint=230 / keyint_min=22 / scenecut=40 / intra_refresh=0 / rc=2pass / mbtree=0 / bitrate=8835 / ratetol=1.0 / qcomp=0.60 / qpmin=0 / qpmax=69 / qpstep=4 / cplxblur=20.0 / qblur=0.5 / ip_ratio=1.40 / pb_ratio=1.30 / aq=1:0.80
Language : English
Default : Yes
Forced : No

Audio #1
ID : 2
Format : AC-3
Format/Info : Audio Coding 3
Mode extension : CM (complete main)
Format settings, Endianness : Big
Codec ID : A_AC3
Duration : 1h 58mn
Bit rate mode : Constant
Bit rate : 192 Kbps
Channel(s) : 2 channels
Channel positions : Front: L R
Sampling rate : 48.0 KHz
Compression mode : Lossy
Stream size : 163 MiB (2%)
Title : 1+1
Default : Yes
Forced : No

Audio #2
ID : 3
Format :
Format/Info : Digital Theater Systems
Mode : 16
Format settings, Endianness : Big
Codec ID : A_DTS
Duration : 1h 58mn
Bit rate mode : Constant
Bit rate : 1 509 Kbps
Channel(s) : 6 channels
Channel positions : Front: L C R, Side: L R, LFE
Sampling rate : 48.0 KHz
Bit depth : 24 bits
Compression mode : Lossy
Stream size : 1.25 GiB (14%)
Title : Original
Language : English
Default : No
Forced : No

Text
ID : 4
Format : PGS
Muxing mode : zlib
Codec ID : S_HDMV/PGS
Codec ID/Info : Picture based subtitle format used on BDs/HD-DVDs
Language : English
Default : No
Forced : No

Menu
00:00:00.000 : en:Chapter 01
00:07:11.973 : en:Chapter 02
00:13:25.179 : en:Chapter 03
00:20:13.879 : en:Chapter 04
00:32:48.716 : en:Chapter 05
00:44:23.577 : en:Chapter 06
00:53:46.139 : en:Chapter 07
01:02:56.230 : en:Chapter 08
01:14:37.014 : en:Chapter 09
01:21:35.307 : en:Chapter 10
01:27:30.328 : en:Chapter 11
01:33:32.231 : en:Chapter 12
01:38:32.489 : en:Chapter 13
01:43:27.034 : en:Chapter 14
01:50:45.388 : en:Chapter 15
Скріншоти





Дякую за українську доріжку панам:

Sando7 та POMEO - за запис з ТБ
patriot2305 - за синхронізацію


Джерело: &


 Трекер:    Зареєстрований   

Завантажити / скачати фільм українською



відео для новачків



 Зареєстрований:   2015-09-22 12:00
 Розмір:   8.74 GB 
 Оцінка фільму:   1/10 (Голосів: 1)
   
Інші релізи
   Ромео та Джульєтта / Romeo and Juliet (2013) patriot2305  4 / 0   1.45 GB   2015-09-21 18:15 
   Ромео і Джульєтта / Romeo and Juliet (2013) | Mic legos25  0 / 0   1.25 GB   2013-12-21 14:16 
Ваш часовий пояс: GMT + 2 Години

Нова тема   Відповісти