Завантажити та скачати торренти українською


Шпигунка [Розширена версія] / Spy [Extended Cut] (2015) 720p-mini

Нові коментарі

Нова тема   Відповісти
Автор Повідомлення
Drool 
VIP


З нами з: 17.04.10
Востаннє: 06.12.16
Повідомлень: 1264

2015-09-22 08:16  
Шпигунка [Розширена версія] / Spy [Extended Cut] (2015) 720p-mini

Жанр: екшн, комедія, кримінальний
Країна: США



Кінокомпанія: Chernin Entertainment, Feigco Entertainment, Twentieth Century Fox
Режисер: Пол Фейґ
Актори: Мелісса МакКарті, Джейсон Стетем, Джуд Лоу, Роуз Бірн, Міранда Гарт, Боббі Каннавале, Морена Баккарін, Джесіка Чаффін, Сем Річардсон, Річард Брейк та інші

Сюжет:
Сьюзан Купер – скромна кабінетна працівниця аналітичного відділу ЦРУ та неоспівана героїня, яка стоїть за найнебезпечнішими операціями Агентства. Проте, коли її напарник зникає, а іншого провідного агента викрито, вона добровільно бере на себе супер-таємну місію, щоб потрапити у середовище торговця смертельною зброєю та запобігти світовій катастрофі.


Тривалість: 02:10:23
Якість: 720p-mini
Відео:
кодек:
розмір кадру: 1280x536
бітрейт: 2612 кб/с

Аудіо:
мова: українська
переклад: професійний дубльований
кодек: 5.1
бітрейт: 448 кб/с

Субтитри:
мова: українська
тип: програмні (м'які) форсовані
формат: *.srt
MediaInfo
General
Unique ID : 196231290969529909379827505810314010330 (0x93A0C59D3B07288B43A7B6ED19829EDA)
Complete name : /mnt/disk_d/Video/Spy.Extended.Cut.2015.Ukr.Dub..720p.UAGet.mkv
Format : Matroska
Format version : Version 4 / Version 2
File size : 2.79 GiB
Duration : 2h 10mn
Overall bit rate : 3 062 Kbps
Movie name : Шпигунка [Розширена версія] / Spy [Extended Cut] (2015) 720p-mini
Encoded date : UTC 2015-10-05 05:49:16
Writing application : mkvmerge v8.2.0 ('World of Adventure') 64bit
Writing library : libebml v1.3.1 + libmatroska v1.4.2
TITLE : Шпигунка [Розширена версія] / Spy [Extended Cut] (2015) 720p-mini -=UAGet=
ARTIST : Мелісса МакКарті, Джейсон Стетем, Джуд Лоу, Роуз Бірн, Міранда Гарт та інші
DIRECTOR : Пол Фейґ
DATE_RELEASED : 2015
GENRE : екшн, комедія, кримінальний
SYNOPSIS : Сьюзан Купер – скромна кабінетна працівниця аналітичного відділу ЦРУ та неоспівана героїня, яка стоїть за найнебезпечнішими операціями Агентства. Проте, коли її напарник зникає, а іншого провідного агента викрито, вона добровільно бере на себе супер-таємну місію, щоб потрапити у середовище торговця смертельною зброєю та запобігти світовій катастрофі.
DURATION : 02:10:23.008000000
NUMBER_OF_FRAMES : 244469
NUMBER_OF_BYTES : 438088448
_STATISTICS_WRITING_APP : mkvmerge v8.2.0 ('World of Adventure') 64bit
_STATISTICS_WRITING_DATE_UTC : 2015-10-05 05:49:16
_STATISTICS_TAGS : BPS DURATION NUMBER_OF_FRAMES NUMBER_OF_BYTES

Video
ID : 1
Format : AVC
Format/Info : Advanced Video Codec
Format profile : [email protected]
Format settings, CABAC : Yes
Format settings, ReFrames : 11 frames
Codec ID : V_MPEG4/ISO/AVC
Duration : 2h 10mn
Bit rate : 2 612 Kbps
Width : 1 280 pixels
Height : 536 pixels
Display aspect ratio : 2.40:1
Frame rate mode : Constant
Frame rate : 23.976 fps
Color space : YUV
Chroma subsampling : 4:2:0
Bit depth : 8 bits
Scan type : Progressive
Bits/(Pixel*Frame) : 0.159
Stream size : 2.33 GiB (83%)
Title : Шпигунка [Розширена версія] / Spy [Extended Cut] (2015) 720p-mini -=UAGet=-
Writing library : core 142 r2389 956c8d8
Encoding settings : cabac=1 / ref=12 / deblock=1:-3:-3 / analyse=0x3:0x133 / me=umh / subme=11 / psy=1 / psy_rd=1,10:0,15 / mixed_ref=1 / me_range=64 / chroma_me=1 / trellis=2 / 8x8dct=1 / cqm=0 / deadzone=21,11 / fast_pskip=0 / chroma_qp_offset=-3 / threads=6 / lookahead_threads=1 / sliced_threads=0 / nr=0 / decimate=1 / interlaced=0 / bluray_compat=0 / constrained_intra=0 / bframes=12 / b_pyramid=1 / b_adapt=2 / b_bias=0 / direct=3 / weightb=1 / open_gop=0 / weightp=2 / keyint=240 / keyint_min=24 / scenecut=40 / intra_refresh=0 / rc=2pass / mbtree=0 / bitrate=2612 / ratetol=1,0 / qcomp=1,00 / qpmin=0 / qpmax=69 / qpstep=4 / cplxblur=20,0 / qblur=0,5 / ip_ratio=1,40 / pb_ratio=1,30 / aq=2:0,60
Default : Yes
Forced : Yes
Color range : Limited
Color primaries : BT.709
Transfer characteristics : BT.709
Matrix coefficients : BT.709

Audio
ID : 2
Format : AC-3
Format/Info : Audio Coding 3
Mode extension : CM (complete main)
Format settings, Endianness : Big
Codec ID : A_AC3
Duration : 2h 10mn
Bit rate mode : Constant
Bit rate : 448 Kbps
Channel(s) : 6 channels
Channel positions : Front: L C R, Side: L R, LFE
Sampling rate : 48.0 KHz
Compression mode : Lossy
Stream size : 418 MiB (15%)
Title : Рідна мова ( 5.1 @ 448 kbps)
Language : Ukrainian
Default : Yes
Forced : Yes

Text
ID : 3
Format : UTF-8
Codec ID : S_TEXT/UTF8
Codec ID/Info : UTF-8 Plain Text
Title : Українські (форсовані)
Language : Ukrainian
Default : Yes
Forced : Yes
Скріншоти






Реліз від:


 Трекер:    Зареєстрований   

Завантажити / скачати фільм українською



відео для новачків



 Зареєстрований:   2015-10-05 08:01
 Розмір:   2.79 GB 
 Оцінка фільму:   9.5/10 (Голосів: 26)
   
bot 
робот


З нами з: 30.09.07
Востаннє: 26.05.05
Повідомлень: 16002

2015-09-22 08:17  
Тему перенесено з Фільми в HD до форуму Анонси релізів


Drool

Drool 
VIP


З нами з: 17.04.10
Востаннє: 06.12.16
Повідомлень: 1264

2015-09-22 08:21  
Орієнтовний розмір - 2,6 гектари.
bot 
робот


З нами з: 30.09.07
Востаннє: 26.05.05
Повідомлень: 16002

2015-09-23 07:20  
Тему перенесено з Анонси релізів до форуму Фільми в HD


Drool

Drool 
VIP


З нами з: 17.04.10
Востаннє: 06.12.16
Повідомлень: 1264

2015-10-05 08:17  
Звук замінено на ліцензію 5.1 448 kbps.
hur 
Новенький


З нами з: 29.11.10
Востаннє: 28.11.16
Повідомлень: 20

2015-10-13 23:35  
Бомбезний фільм! Дякую!!!
cyberprostir 
Свій


З нами з: 15.11.09
Востаннє: 05.12.16
Повідомлень: 105

2015-11-11 20:57  
Давно не дивився настільки класної комедії! Дякую!
Ваш часовий пояс: GMT + 2 Години

Нова тема   Відповісти