Завантажити та скачати торренти українською


Ірена Карпа (Фактично самі, Qarpa) - Дискографiя (7 CD) (2001-11) [FLAC] | Alternative / Lo-Fi

Нові коментарі

Нова тема   Відповісти
Останній раз роздавалося rom.other (2016-12-11)
Автор Повідомлення
kolpavel 
VIP


З нами з: 04.05.14
Востаннє: 11.12.16
Повідомлень: 1062

2015-09-21 13:51  
Ірена Карпа (Фактично самі, Qarpa) - Дискографiя (7 CD) (2001-11) [FLAC] | Alternative / Lo-Fi


Ірена Карпа (Фактично самі, Qarpa) - Дискографiя (7 CD) (2001-11) [FLAC] | Alternative / Lo-Fi


Стиль: Alternative Lo-Fi
Країна, місто: Україна, Київ
Сайти: Офіційний сайт
Виконавці:
Ірена КАРПА – вокал
Олег АРТИМ – електро гітара, програмування
Артур ДАНІЄЛЯН – бас гітара, програмування
Євгенія СМОЛЯНИНОВА – віолончель
Андрій КОГУТ – барабани

Альбоми:
2001 - Болєзні Пєвчіх Птіц

Ірена Карпа (Фактично самі, Qarpa) - Дискографiя (7 CD) (2001-11) [FLAC] | Alternative / Lo-Fi

Треклист:
01 | Танці мене | 04:18
02 | Недоля | 05:01
03 | Хоп | 05:32
04 | Фарба | 04:12
05 | Міжнами ніж | 05:23
06 | Лиш не вмирай | 05:15
07 | Димно | 03:26
08 | Хапали | 04:42
09 | Я хворію | 04:31
10 | Зима | 04:26
11 | По всіх | 03:51
12 | Вогонь | 06:48
13 | В твоїх обіймах | 04:27
14 | Я така маленька | 05:14
15 | Шо да | 04:00
16 | Паска близько | 05:32

Видавець: Rostok Records
Тривалість: 01:16:47
Мова: українська
Бітрейт: 905 кб/с
Звiт EAC:

Код:
Exact Audio Copy V0.99 prebeta 4 from 23. January 2008

EAC extraction logfile from 6. May 2009, 0:35

Fuckтично Самі / Болєзні Пєвчіх Птіц

Used drive : HL-DT-STDVD-RAM GSA-H58N Adapter: 0 ID: 0

Read mode : Secure
Utilize accurate stream : Yes
Defeat audio cache : Yes
Make use of C2 pointers : No

Read offset correction : 102
Overread into Lead-In and Lead-Out : No
Fill up missing offset samples with silence : Yes
Delete leading and trailing silent blocks : No
Null samples used in CRC calculations : Yes
Used interface : Native Win32 interface for Win NT & 2000

Used output format : User Defined Encoder
Selected bitrate : 1024 kBit/s
Quality : High
Add ID3 tag : No
Command line compressor : C:\Program Files\FLAC\flac.exe
Additional command line options : -8 -V -T "ARTIST=%a" -T "TITLE=%t" -T "ALBUM=%g" -T "DATE=%y" -T "TRACKNUMBER=%n" -T "GENRE=%m" -T "COMMENT=EAC FLAC -8" %s

TOC of the extracted CD

Track | Start | Length | Start sector | End sector
---------------------------------------------------------
1 | 0:00.00 | 4:18.27 | 0 | 19376
2 | 4:18.27 | 5:01.55 | 19377 | 42006
3 | 9:20.07 | 5:32.10 | 42007 | 66916
4 | 14:52.17 | 4:12.62 | 66917 | 85878
5 | 19:05.04 | 5:23.51 | 85879 | 110154
6 | 24:28.55 | 5:15.46 | 110155 | 133825
7 | 29:44.26 | 3:26.69 | 133826 | 149344
8 | 33:11.20 | 4:42.73 | 149345 | 170567
9 | 37:54.18 | 4:31.63 | 170568 | 190955
10 | 42:26.06 | 4:26.19 | 190956 | 210924
11 | 46:52.25 | 3:51.08 | 210925 | 228257
12 | 50:43.33 | 6:48.32 | 228258 | 258889
13 | 57:31.65 | 4:27.19 | 258890 | 278933
14 | 61:59.09 | 5:14.39 | 278934 | 302522
15 | 67:13.48 | 4:00.67 | 302523 | 320589
16 | 71:14.40 | 5:32.51 | 320590 | 345540
17 | 79:19.16 | 0:08.00 | 356941 | 357540

Range status and errors

Selected range

Filename D:\Fuckтично Самі - Болєзні Пєвчіх Птіц\Fuckтично Самі - Болєзні Пєвчіх Птіц.wav

Peak level 97.7 %
Range quality 99.9 %
Test CRC CD5655AF
Copy CRC CD5655AF
Copy OK

No errors occurred

AccurateRip summary

Track 1 not present in database
Track 2 not present in database
Track 3 not present in database
Track 4 not present in database
Track 5 not present in database
Track 6 not present in database
Track 7 not present in database
Track 8 not present in database
Track 9 not present in database
Track 10 not present in database
Track 11 not present in database
Track 12 not present in database
Track 13 not present in database
Track 14 not present in database
Track 15 not present in database
Track 16 not present in database

None of the tracks are present in the AccurateRip database

End of status report
CUE:

Код:
REM GENRE Alternative
REM DATE 2001
REM DISCID FD129F11
REM COMMENT "ExactAudioCopy v0.99pb4"
PERFORMER "Fuckтично Самі"
TITLE "Болєзні Пєвчіх Птіц"
FILE "Fuckтично Самі - Болєзні Пєвчіх Птіц.flac" WAVE
TRACK 01 AUDIO
TITLE "Танці мене"
PERFORMER "Fuckтично Самі"
FLAGS DCP
INDEX 01 00:00:00
TRACK 02 AUDIO
TITLE "Недоля"
PERFORMER "Fuckтично Самі"
FLAGS DCP
INDEX 01 04:18:27
TRACK 03 AUDIO
TITLE "Хоп"
PERFORMER "Fuckтично Самі"
FLAGS DCP
INDEX 01 09:20:07
TRACK 04 AUDIO
TITLE "Фарба"
PERFORMER "Fuckтично Самі"
FLAGS DCP
INDEX 01 14:52:17
TRACK 05 AUDIO
TITLE "Міжнами ніж"
PERFORMER "Fuckтично Самі"
FLAGS DCP
INDEX 01 19:05:04
TRACK 06 AUDIO
TITLE "Лиш не вмирай"
PERFORMER "Fuckтично Самі"
FLAGS DCP
INDEX 01 24:28:55
TRACK 07 AUDIO
TITLE "Димно"
PERFORMER "Fuckтично Самі"
FLAGS DCP
INDEX 01 29:44:26
TRACK 08 AUDIO
TITLE "Хапали"
PERFORMER "Fuckтично Самі"
FLAGS DCP
INDEX 01 33:11:20
TRACK 09 AUDIO
TITLE "Я хворію"
PERFORMER "Fuckтично Самі"
FLAGS DCP
INDEX 01 37:54:18
TRACK 10 AUDIO
TITLE "Зима"
PERFORMER "Fuckтично Самі"
FLAGS DCP
INDEX 01 42:26:06
TRACK 11 AUDIO
TITLE "По всіх"
PERFORMER "Fuckтично Самі"
FLAGS DCP
INDEX 01 46:52:25
TRACK 12 AUDIO
TITLE "Вогонь"
PERFORMER "Fuckтично Самі"
FLAGS DCP
INDEX 01 50:43:33
TRACK 13 AUDIO
TITLE "В твоїх обіймах"
PERFORMER "Fuckтично Самі"
FLAGS DCP
INDEX 01 57:31:65
TRACK 14 AUDIO
TITLE "Я така маленька"
PERFORMER "Fuckтично Самі"
FLAGS DCP
INDEX 01 61:59:09
TRACK 15 AUDIO
TITLE "Шо да"
PERFORMER "Fuckтично Самі"
FLAGS DCP
INDEX 01 67:13:48
TRACK 16 AUDIO
TITLE "Паска близько"
PERFORMER "Fuckтично Самі"
FLAGS DCP
INDEX 01 71:14:40
Звiт auCDtect Task manager:

Код:
-----------------------

DON'T MODIFY THIS FILE

-----------------------

PERFORMER: auCDtect Task Manager, ver. 1.5.1RC6 build 1.5.1.7
Copyright (c) 2008-2010 y-soft. All rights reserved
http://y-soft.org

ANALYZER: auCDtect: CD records authenticity detector, version 0.8.2
Copyright (c) 2004 Oleg Berngardt. All rights reserved.
Copyright (c) 2004 Alexander Djourik. All rights reserved.

FILE: Fuckтично Самі - Болєзні Пєвчіх Птіц.flac
Size: 521369837 Hash: 86CE67AD64FA4BB5CB5D6A29793BCB2B Accuracy: -m0
Conclusion: CDDA 100%
Signature: F89FEBD14A94C4D8FB95EE971A0E752A81FB0B76
2004 - Fuckтично Самі

Ірена Карпа (Фактично самі, Qarpa) - Дискографiя (7 CD) (2001-11) [FLAC] | Alternative / Lo-Fi

Треклист:
01 | Любе лібідо | 03:43
02 | Киріян | 03:57
03 | Небо | 03:29
04 | Залишай | 03:48
05 | Дивина | 03:20
06 | Серця | 04:50
07 | Прорив у космічних відносинах | 04:54
08 | Я знаю код | 03:53
09 | В твоїх обіймах | 04:27
10 | Зима | 04:26
11 | Повітря | 04:14
12 | Жовті танці | 04:10
13 | По дорозі | 04:11
14 | Тугу тугу | 04:14
15 | Дивом дивуюсь | 04:05
16 | Жінка-сокира рубає | 04:10
17 | Good bye | 02:04
18 | Grow old | 04:29

Видавець:Атлантик
Тривалість: 01:12:31
Мова: українська
Бітрейт: 665 - 1081 кб/с
Звiт EAC:
Код:
Exact Audio Copy V0.99 prebeta 5 from 4. May 2009

Отчёт EAC об извлечении, выполненном 15. июля 2009, 3:32

Фактично Самі / Фактично Самі

Дисковод: HL-DT-STDVDRAM GH20NS10 Adapter: 3 ID: 1

Режим чтения : Достоверность
Использование точного потока : Да
Отключение кэша аудио : Да
Использование указателей C2 : Нет

Коррекция смещения при чтении : 667
Способность читать области Lead-in и Lead-out : Нет
Заполнение пропущенных сэмплов тишиной : Да
Удаление блоков с тишиной в начале и конце : Нет
При вычислениях CRC использовались нулевые сэмплы : Да
Интерфейс : Встроенный Win32-интерфейс для Win NT/2000
Обработка зазоров : Добавлено к предыдущему треку

Выходной формат : Пользовательский кодировщик
Выбранный битрейт : 128 kBit/s
Качество : Высокий
Добавление ID3-тэга : Нет
Утилита сжатия : C:\Program Files\FLAC\flac.exe
Дополнительные параметры : -8 -V -T "ARTIST=%a" -T "TITLE=%t" -T "ALBUM=%g" -T "DATE=%y" -T "TRACKNUMBER=%n" -T "GENRE=%m" -T "COMMENT=EAC FLAC -8" %s

TOC извлечённого CD

Трек | Старт | Длительность | Начальный сектор | Конечный сектор
---------------------------------------------------------------------
1 | 0:00.00 | 3:43.02 | 0 | 16726
2 | 3:43.02 | 3:57.56 | 16727 | 34557
3 | 7:40.58 | 3:29.31 | 34558 | 50263
4 | 11:10.14 | 3:48.45 | 50264 | 67408
5 | 14:58.59 | 3:20.54 | 67409 | 82462
6 | 18:19.38 | 4:50.20 | 82463 | 104232
7 | 23:09.58 | 4:54.13 | 104233 | 126295
8 | 28:03.71 | 3:53.03 | 126296 | 143773
9 | 31:56.74 | 4:27.19 | 143774 | 163817
10 | 36:24.18 | 4:26.19 | 163818 | 183786
11 | 40:50.37 | 4:14.17 | 183787 | 202853
12 | 45:04.54 | 4:10.26 | 202854 | 221629
13 | 49:15.05 | 4:11.41 | 221630 | 240495
14 | 53:26.46 | 4:14.34 | 240496 | 259579
15 | 57:41.05 | 4:05.67 | 259580 | 278021
16 | 61:46.72 | 4:10.27 | 278022 | 296798
17 | 65:57.24 | 2:04.52 | 296799 | 306150
18 | 68:02.01 | 4:29.11 | 306151 | 326336

Трек 1

Имя файла C:\Users\Администратор\Desktop\Новая папка (2)\01 - Любе лібідо.wav

Длина предзазора 0:00:02.00

Пиковый уровень 97.7 %
Качество трека 100.0 %
CRC теста 1D8BE004
CRC копии 1D8BE004
Трек не обнаружен в базе AccurateRip
Копирование... OK

Трек 2

Имя файла C:\Users\Администратор\Desktop\Новая папка (2)\02 - Киріян.wav

Пиковый уровень 97.7 %
Качество трека 99.9 %
CRC теста 112284D2
CRC копии 112284D2
Трек не обнаружен в базе AccurateRip
Копирование... OK

Трек 3

Имя файла C:\Users\Администратор\Desktop\Новая папка (2)\03 - Небо.wav

Пиковый уровень 97.7 %
Качество трека 100.0 %
CRC теста 52AEB9E8
CRC копии 52AEB9E8
Трек не обнаружен в базе AccurateRip
Копирование... OK

Трек 4

Имя файла C:\Users\Администратор\Desktop\Новая папка (2)\04 - Залишай.wav

Пиковый уровень 97.7 %
Качество трека 100.0 %
CRC теста D8757D7D
CRC копии D8757D7D
Трек не обнаружен в базе AccurateRip
Копирование... OK

Трек 5

Имя файла C:\Users\Администратор\Desktop\Новая папка (2)\05 - Дивина.wav

Пиковый уровень 97.7 %
Качество трека 100.0 %
CRC теста 48375714
CRC копии 48375714
Трек не обнаружен в базе AccurateRip
Копирование... OK

Трек 6

Имя файла C:\Users\Администратор\Desktop\Новая папка (2)\06 - Серця.wav

Пиковый уровень 96.6 %
Качество трека 100.0 %
CRC теста 9E291C47
CRC копии 9E291C47
Трек не обнаружен в базе AccurateRip
Копирование... OK

Трек 7

Имя файла C:\Users\Администратор\Desktop\Новая папка (2)\07 - Прорив у космічних відносинах.wav

Пиковый уровень 96.6 %
Качество трека 99.9 %
CRC теста 1FEC3562
CRC копии 1FEC3562
Трек не обнаружен в базе AccurateRip
Копирование... OK

Трек 8

Имя файла C:\Users\Администратор\Desktop\Новая папка (2)\08 - Я знаю код.wav

Пиковый уровень 96.5 %
Качество трека 100.0 %
CRC теста 3C9DC0B1
CRC копии 3C9DC0B1
Трек не обнаружен в базе AccurateRip
Копирование... OK

Трек 9

Имя файла C:\Users\Администратор\Desktop\Новая папка (2)\09 - В твоїх обіймах.wav

Пиковый уровень 97.7 %
Качество трека 100.0 %
CRC теста 80DC719C
CRC копии 80DC719C
Трек не обнаружен в базе AccurateRip
Копирование... OK

Трек 10

Имя файла C:\Users\Администратор\Desktop\Новая папка (2)\10 - Зима.wav

Пиковый уровень 96.6 %
Качество трека 100.0 %
CRC теста 632597CC
CRC копии 632597CC
Трек не обнаружен в базе AccurateRip
Копирование... OK

Трек 11

Имя файла C:\Users\Администратор\Desktop\Новая папка (2)\11 - Повітря.wav

Пиковый уровень 89.1 %
Качество трека 100.0 %
CRC теста DA3F1CB7
CRC копии DA3F1CB7
Трек не обнаружен в базе AccurateRip
Копирование... OK

Трек 12

Имя файла C:\Users\Администратор\Desktop\Новая папка (2)\12 - Жовті танці.wav

Пиковый уровень 96.6 %
Качество трека 100.0 %
CRC теста DB882968
CRC копии DB882968
Трек не обнаружен в базе AccurateRip
Копирование... OK

Трек 13

Имя файла C:\Users\Администратор\Desktop\Новая папка (2)\13 - По дорозі.wav

Пиковый уровень 96.6 %
Качество трека 100.0 %
CRC теста 5FC5C4C1
CRC копии 5FC5C4C1
Трек не обнаружен в базе AccurateRip
Копирование... OK

Трек 14

Имя файла C:\Users\Администратор\Desktop\Новая папка (2)\14 - Тугу тугу.wav

Пиковый уровень 96.4 %
Качество трека 100.0 %
CRC теста E8685C36
CRC копии E8685C36
Трек не обнаружен в базе AccurateRip
Копирование... OK

Трек 15

Имя файла C:\Users\Администратор\Desktop\Новая папка (2)\15 - Дивом дивуюсь.wav

Пиковый уровень 96.4 %
Качество трека 100.0 %
CRC теста CFCEE8ED
CRC копии CFCEE8ED
Трек не обнаружен в базе AccurateRip
Копирование... OK

Трек 16

Имя файла C:\Users\Администратор\Desktop\Новая папка (2)\16 - Жінка-сокира рубає.wav

Пиковый уровень 100.0 %
Качество трека 99.9 %
CRC теста AC06476D
CRC копии AC06476D
Трек не обнаружен в базе AccurateRip
Копирование... OK

Трек 17

Имя файла C:\Users\Администратор\Desktop\Новая папка (2)\17 - Good bye.wav

Пиковый уровень 96.5 %
Качество трека 100.0 %
CRC теста FB71A41F
CRC копии FB71A41F
Трек не обнаружен в базе AccurateRip
Копирование... OK

Трек 18

Имя файла C:\Users\Администратор\Desktop\Новая папка (2)\18 - Grow old.wav

Пиковый уровень 96.6 %
Качество трека 100.0 %
CRC теста BFFF39B1
CRC копии BFFF39B1
Трек не обнаружен в базе AccurateRip
Копирование... OK

Ни одного трека нет в базе AccurateRip

Ошибок не произошло

Конец отчёта
CUE:
Код:
REM GENRE Alternative
REM DATE 2004
REM DISCID 0510FF12
REM COMMENT "ExactAudioCopy v0.99pb5"
PERFORMER "Фактично Самі"
TITLE "Фактично Самі"
FILE "01 - Любе лібідо.wav" WAVE
TRACK 01 AUDIO
TITLE "Любе лібідо"
PERFORMER "Фактично Самі"
FLAGS DCP
INDEX 01 00:00:00
FILE "02 - Киріян.wav" WAVE
TRACK 02 AUDIO
TITLE "Киріян"
PERFORMER "Фактично Самі"
FLAGS DCP
INDEX 01 00:00:00
FILE "03 - Небо.wav" WAVE
TRACK 03 AUDIO
TITLE "Небо"
PERFORMER "Фактично Самі"
FLAGS DCP
INDEX 01 00:00:00
FILE "04 - Залишай.wav" WAVE
TRACK 04 AUDIO
TITLE "Залишай"
PERFORMER "Фактично Самі"
FLAGS DCP
INDEX 01 00:00:00
FILE "05 - Дивина.wav" WAVE
TRACK 05 AUDIO
TITLE "Дивина"
PERFORMER "Фактично Самі"
FLAGS DCP
INDEX 01 00:00:00
FILE "06 - Серця.wav" WAVE
TRACK 06 AUDIO
TITLE "Серця"
PERFORMER "Фактично Самі"
FLAGS DCP
INDEX 01 00:00:00
FILE "07 - Прорив у космічних відносинах.wav" WAVE
TRACK 07 AUDIO
TITLE "Прорив у космічних відносинах"
PERFORMER "Фактично Самі"
FLAGS DCP
INDEX 01 00:00:00
FILE "08 - Я знаю код.wav" WAVE
TRACK 08 AUDIO
TITLE "Я знаю код"
PERFORMER "Фактично Самі"
FLAGS DCP
INDEX 01 00:00:00
FILE "09 - В твоїх обіймах.wav" WAVE
TRACK 09 AUDIO
TITLE "В твоїх обіймах"
PERFORMER "Фактично Самі"
FLAGS DCP
INDEX 01 00:00:00
FILE "10 - Зима.wav" WAVE
TRACK 10 AUDIO
TITLE "Зима"
PERFORMER "Фактично Самі"
FLAGS DCP
INDEX 01 00:00:00
FILE "11 - Повітря.wav" WAVE
TRACK 11 AUDIO
TITLE "Повітря"
PERFORMER "Фактично Самі"
FLAGS DCP
INDEX 01 00:00:00
FILE "12 - Жовті танці.wav" WAVE
TRACK 12 AUDIO
TITLE "Жовті танці"
PERFORMER "Фактично Самі"
FLAGS DCP
INDEX 01 00:00:00
FILE "13 - По дорозі.wav" WAVE
TRACK 13 AUDIO
TITLE "По дорозі"
PERFORMER "Фактично Самі"
FLAGS DCP
INDEX 01 00:00:00
FILE "14 - Тугу тугу.wav" WAVE
TRACK 14 AUDIO
TITLE "Тугу тугу"
PERFORMER "Фактично Самі"
FLAGS DCP
INDEX 01 00:00:00
FILE "15 - Дивом дивуюсь.wav" WAVE
TRACK 15 AUDIO
TITLE "Дивом дивуюсь"
PERFORMER "Фактично Самі"
FLAGS DCP
INDEX 01 00:00:00
FILE "16 - Жінка-сокира рубає.wav" WAVE
TRACK 16 AUDIO
TITLE "Жінка-сокира рубає"
PERFORMER "Фактично Самі"
FLAGS DCP
INDEX 01 00:00:00
FILE "17 - Good bye.wav" WAVE
TRACK 17 AUDIO
TITLE "Good bye"
PERFORMER "Фактично Самі"
FLAGS DCP
INDEX 01 00:00:00
FILE "18 - Grow old.wav" WAVE
TRACK 18 AUDIO
TITLE "Grow old"
PERFORMER "Фактично Самі"
FLAGS DCP
INDEX 01 00:00:00
Звiт auCDtect Task manager:
Код:
-----------------------

DON'T MODIFY THIS FILE

-----------------------

PERFORMER: auCDtect Task Manager, ver. 1.5.1RC6 build 1.5.1.7
Copyright (c) 2008-2010 y-soft. All rights reserved
http://y-soft.org

ANALYZER: auCDtect: CD records authenticity detector, version 0.8.2
Copyright (c) 2004 Oleg Berngardt. All rights reserved.
Copyright (c) 2004 Alexander Djourik. All rights reserved.

FILE: 18 - Grow old.flac
Size: 29874861 Hash: A99EC9377C9123D5F71544FB918FE7BB Accuracy: -m0
Conclusion: CDDA 100%
Signature: 15E490F418F7CAB84CB63EBA51FDBC612BF98E9A
FILE: 17 - Good bye.flac
Size: 14310850 Hash: 45D54F9CB9FDD902CABD2D15C3036664 Accuracy: -m0
Conclusion: CDDA 100%
Signature: 578E7414416DA90556C27CFEA6AE10E444683922
FILE: 16 - Жінка-сокира рубає.flac
Size: 30031966 Hash: 1BFC79C9A8FE625F0A1D0747B5D24085 Accuracy: -m0
Conclusion: CDDA 100%
Signature: BD52AA23661F7BE6263B6B9D054B2EB54A460FF0
FILE: 15 - Дивом дивуюсь.flac
Size: 21695244 Hash: 1AC33031F205AA41EEC63FB65F975FAF Accuracy: -m0
Conclusion: CDDA 100%
Signature: E887F7FAA8DBE2FBF76BCB1F1367A8D9FAC721B1
FILE: 14 - Тугу тугу.flac
Size: 28505095 Hash: 404E2DED40CF7EC0F03F379787035C94 Accuracy: -m0
Conclusion: CDDA 100%
Signature: 5AF984C952F1E3B84ECF8431D25F20C221532EA6
FILE: 13 - По дорозі.flac
Size: 26836360 Hash: 513C92BAB93EA87CEEE3DD5AA8131FBA Accuracy: -m0
Conclusion: CDDA 100%
Signature: 128804EB7F388EF7514820CCF7793EB9C4C69B86
FILE: 12 - Жовті танці.flac
Size: 29073761 Hash: BABDD20E7B9EB8BF1B452102D91F401B Accuracy: -m0
Conclusion: CDDA 100%
Signature: B4C8F2942493440EA8D6E4E0FCF048AD67274668
FILE: 11 - Повітря.flac
Size: 26704615 Hash: D99983EA078323AD972C1E445952959F Accuracy: -m0
Conclusion: CDDA 100%
Signature: 7F029D4B8EC739563B12A89F33F4F23A6168E934
FILE: 10 - Зима.flac
Size: 26992875 Hash: 6E4117A3CC28072E441A4BB459C1C671 Accuracy: -m0
Conclusion: CDDA 99%
Signature: 536AAA2BF2702A1D57B4F8B1A2A826E96633BCFA
FILE: 09 - В твоїх обіймах.flac
Size: 22204495 Hash: E89BB01C6DC7971FC14C7D78FDD46097 Accuracy: -m0
Conclusion: CDDA 100%
Signature: 96CAD22A6EFC362C489772A53B54471A909288B9
FILE: 08 - Я знаю код.flac
Size: 26616068 Hash: 141900CA8832EAF645B9FCD1AA737757 Accuracy: -m0
Conclusion: CDDA 100%
Signature: 4E182009CE6FECC29EC0265549557A41D5D8D741
FILE: 07 - Прорив у космічних відносинах.flac
Size: 29390015 Hash: 9BED25A4B8A33AC60BB515EF129FD8FD Accuracy: -m0
Conclusion: CDDA 100%
Signature: 3354681CC34DD8AE77AED5732E0E5C0576F4124B
FILE: 06 - Серця.flac
Size: 28400841 Hash: 84BC9B8DEFB08131A52AF0998E00EC3D Accuracy: -m0
Conclusion: CDDA 100%
Signature: D74397A0FAC0DFCB2E2F054049E3395CB164B8DF
FILE: 05 - Дивина.flac
Size: 21033510 Hash: 7A2B3A45CD21AD7F522ED13EF38AC771 Accuracy: -m0
Conclusion: CDDA 100%
Signature: 54444B4D93B3E5EEEB94C04549F8EAB04D976709
FILE: 04 - Залишай.flac
Size: 25919628 Hash: 6466F5785104850E8B7EC49CC713E500 Accuracy: -m0
Conclusion: CDDA 100%
Signature: DD9BF1EB10A1A2561C7266026BADED8A863F5323
FILE: 03 - Небо.flac
Size: 20372882 Hash: B7AB29D19F4F5E12E81BEB9BACF40C1B Accuracy: -m0
Conclusion: CDDA 100%
Signature: ADA2B3CD904355821C8BDBB93EBB316A887AB7B4
FILE: 02 - Киріян.flac
Size: 30400423 Hash: B0C2D216FB974D952E65FFFACED7AC1F Accuracy: -m0
Conclusion: CDDA 99%
Signature: E9F03224F1B5904047DAC00B077450633DAC7EF1
FILE: 01 - Любе лібідо.flac
Size: 30132533 Hash: 20FF371A5BD81BFB046EBB66850E0B04 Accuracy: -m0
Conclusion: CDDA 100%
Signature: 28EED62088DB1A5ADD9883A67C308307908AD566
2004 - Kurva Cum Back

Ірена Карпа (Фактично самі, Qarpa) - Дискографiя (7 CD) (2001-11) [FLAC] | Alternative / Lo-Fi

Треклист:
01 | cyri-yan | 04:36
02 | lyube libido | 03:42
03 | ya povtoruu T.B. | 03:41
04 | sashahuy | 03:47
05 | lovesong-0-667 | 04:38
06 | faktychno vyhraut' vsikh | 04:20
07 | POPelushka | 03:43
08 | dr. Pit Boo-Lee | 03:57
09 | lysty | 03:41
10 | mayak kolomyya | 03:56
11 | pyzdet's ko...nu | 04:16
12 | potsilunky 9' | 04:20
13 | no logo | 03:49
14 | ty ne zbudzhuyesh mene | 03:10
Треклист українською:

01 - Кирі-ян (4:36)
02 - Любе лібідо (3:42)
03 - Я повторюю Т. Б. (3:41)
04 - Сашахуй (3:47)
05 - lovesong-0-667 (4:38)
06 - Фактично виграють всіх (4:20)
07 - ПОПелюшка (3:43)
08 - dr. Pit Boo-Lee (3:57)
09 - Листи (3:41)
10 - Маяк Коломия (3:56)
11 - Пиздець Ко...ну (4:16)
12 - Поцілунки 9 (4:20)
13 - no logo (3:34)
14 - Ти не збуджуєш мене (3:10)
Видавець: Advisory
Тривалість: 00:55:43
Мова: українська
Бітрейт: 960 кб/с
Звiт EAC:

Код:
Exact Audio Copy V0.99 prebeta 4 from 23. January 2008

EAC extraction logfile from 4. July 2009, 20:04

Фактично Самi / Kurva Cum Back

Used drive : HL-DT-STDVD-RAM GSA-H58N Adapter: 0 ID: 0

Read mode : Secure
Utilize accurate stream : Yes
Defeat audio cache : Yes
Make use of C2 pointers : No

Read offset correction : 102
Overread into Lead-In and Lead-Out : No
Fill up missing offset samples with silence : Yes
Delete leading and trailing silent blocks : No
Null samples used in CRC calculations : Yes
Used interface : Native Win32 interface for Win NT & 2000
Gap handling : Appended to previous track

Used output format : User Defined Encoder
Selected bitrate : 1024 kBit/s
Quality : High
Add ID3 tag : No
Command line compressor : C:\Program Files\FLAC\flac.exe
Additional command line options : -8 -V -T "ARTIST=%a" -T "TITLE=%t" -T "ALBUM=%g" -T "DATE=%y" -T "TRACKNUMBER=%n" -T "GENRE=%m" -T "COMMENT=EAC FLAC -8" %s

TOC of the extracted CD

Track | Start | Length | Start sector | End sector
---------------------------------------------------------
1 | 0:00.00 | 4:36.18 | 0 | 20717
2 | 4:36.18 | 3:42.14 | 20718 | 37381
3 | 8:18.32 | 3:41.53 | 37382 | 54009
4 | 12:00.10 | 3:47.39 | 54010 | 71073
5 | 15:47.49 | 4:38.29 | 71074 | 91952
6 | 20:26.03 | 4:20.49 | 91953 | 111501
7 | 24:46.52 | 3:43.57 | 111502 | 128283
8 | 28:30.34 | 3:57.19 | 128284 | 146077
9 | 32:27.53 | 3:41.34 | 146078 | 162686
10 | 36:09.12 | 3:56.67 | 162687 | 180453
11 | 40:06.04 | 4:16.50 | 180454 | 199703
12 | 44:22.54 | 4:20.21 | 199704 | 219224
13 | 48:43.00 | 3:49.60 | 219225 | 236459
14 | 52:32.60 | 3:10.29 | 236460 | 250738
15 | 58:15.14 | 17:04.16 | 262139 | 338954

Track 1

Filename D:\Фактично Самі - Kurva Cum Back [2004]\01 - cyri-yan.wav

Pre-gap length 0:00:02.00

Peak level 97.7 %
Track quality 100.0 %
Test CRC 5C51E64A
Copy CRC 5C51E64A
Track not present in AccurateRip database
Copy OK

Track 2

Filename D:\Фактично Самі - Kurva Cum Back [2004]\02 - lyube libido.wav

Pre-gap length 0:00:37.80

Peak level 97.7 %
Track quality 100.0 %
Test CRC D3E8FA62
Copy CRC D3E8FA62
Track not present in AccurateRip database
Copy OK

Track 3

Filename D:\Фактично Самі - Kurva Cum Back [2004]\03 - ya povtoruu T.B..wav

Peak level 97.7 %
Track quality 100.0 %
Test CRC 165B3785
Copy CRC 165B3785
Track not present in AccurateRip database
Copy OK

Track 4

Filename D:\Фактично Самі - Kurva Cum Back [2004]\04 - sashahuy.wav

Peak level 97.7 %
Track quality 100.0 %
Test CRC 2D518655
Copy CRC 2D518655
Track not present in AccurateRip database
Copy OK

Track 5

Filename D:\Фактично Самі - Kurva Cum Back [2004]\05 - lovesong-0-667.wav

Pre-gap length 0:00:12.54

Peak level 97.7 %
Track quality 100.0 %
Test CRC 638A84B2
Copy CRC 638A84B2
Track not present in AccurateRip database
Copy OK

Track 6

Filename D:\Фактично Самі - Kurva Cum Back [2004]\06 - faktychno vyhraut' vsikh.wav

Pre-gap length 0:00:44.12

Peak level 97.7 %
Track quality 99.9 %
Test CRC CF80D101
Copy CRC CF80D101
Track not present in AccurateRip database
Copy OK

Track 7

Filename D:\Фактично Самі - Kurva Cum Back [2004]\07 - POPelushka.wav

Pre-gap length 0:00:23.41

Peak level 97.7 %
Track quality 100.0 %
Test CRC 69227B1C
Copy CRC 69227B1C
Track not present in AccurateRip database
Copy OK

Track 8

Filename D:\Фактично Самі - Kurva Cum Back [2004]\08 - dr. Pit Boo-Lee.wav

Peak level 97.7 %
Track quality 100.0 %
Test CRC 0F991356
Copy CRC 0F991356
Track not present in AccurateRip database
Copy OK

Track 9

Filename D:\Фактично Самі - Kurva Cum Back [2004]\09 - lysty.wav

Pre-gap length 0:00:01.89

Peak level 97.7 %
Track quality 100.0 %
Test CRC F21A32AB
Copy CRC F21A32AB
Track not present in AccurateRip database
Copy OK

Track 10

Filename D:\Фактично Самі - Kurva Cum Back [2004]\10 - mayak kolomyya.wav

Peak level 97.7 %
Track quality 100.0 %
Test CRC 140946F8
Copy CRC 140946F8
Track not present in AccurateRip database
Copy OK

Track 11

Filename D:\Фактично Самі - Kurva Cum Back [2004]\11 - pyzdet's ko...nu.wav

Pre-gap length 0:00:18.76

Peak level 97.7 %
Track quality 99.9 %
Test CRC F8DB1C70
Copy CRC F8DB1C70
Track not present in AccurateRip database
Copy OK

Track 12

Filename D:\Фактично Самі - Kurva Cum Back [2004]\12 - potsilunky 9'.wav

Peak level 97.7 %
Track quality 100.0 %
Test CRC 98BA92B4
Copy CRC 98BA92B4
Track not present in AccurateRip database
Copy OK

Track 13

Filename D:\Фактично Самі - Kurva Cum Back [2004]\13 - no logo.wav

Peak level 98.8 %
Track quality 99.9 %
Test CRC F94365B9
Copy CRC F94365B9
Track not present in AccurateRip database
Copy OK

Track 14

Filename D:\Фактично Самі - Kurva Cum Back [2004]\14 - ty ne zbudzhuyesh mene.wav

Pre-gap length 0:00:16.13

Peak level 98.8 %
Track quality 100.0 %
Test CRC 6C5996D5
Copy CRC 6C5996D5
Track not present in AccurateRip database
Copy OK

None of the tracks are present in the AccurateRip database

No errors occurred

End of status report
CUE:
Код:
REM GENRE Alternative
REM DATE 2004
REM DISCID DE11A70F
REM COMMENT "ExactAudioCopy v0.99pb4"
PERFORMER "Фактично Самi"
TITLE "Kurva Cum Back"
FILE "01 - cyri-yan.wav" WAVE
TRACK 01 AUDIO
TITLE "cyri-yan"
PERFORMER "Фактично Самi"
INDEX 01 00:00:00
TRACK 02 AUDIO
TITLE "lyube libido"
PERFORMER "Фактично Самi"
INDEX 00 03:58:33
FILE "02 - lyube libido.wav" WAVE
INDEX 01 00:00:00
FILE "03 - ya povtoruu T.B..wav" WAVE
TRACK 03 AUDIO
TITLE "ya povtoruu T.B."
PERFORMER "Фактично Самi"
INDEX 01 00:00:00
FILE "04 - sashahuy.wav" WAVE
TRACK 04 AUDIO
TITLE "sashahuy"
PERFORMER "Фактично Самi"
INDEX 01 00:00:00
TRACK 05 AUDIO
TITLE "lovesong-0-667"
PERFORMER "Фактично Самi"
INDEX 00 03:34:73
FILE "05 - lovesong-0-667.wav" WAVE
INDEX 01 00:00:00
TRACK 06 AUDIO
TITLE "faktychno vyhraut' vsikh"
PERFORMER "Фактично Самi"
INDEX 00 03:54:20
FILE "06 - faktychno vyhraut' vsikh.wav" WAVE
INDEX 01 00:00:00
TRACK 07 AUDIO
TITLE "POPelushka"
PERFORMER "Фактично Самi"
INDEX 00 03:57:18
FILE "07 - POPelushka.wav" WAVE
INDEX 01 00:00:00
FILE "08 - dr. Pit Boo-Lee.wav" WAVE
TRACK 08 AUDIO
TITLE "dr. Pit Boo-Lee"
PERFORMER "Фактично Самi"
INDEX 01 00:00:00
TRACK 09 AUDIO
TITLE "lysty"
PERFORMER "Фактично Самi"
INDEX 00 03:55:27
FILE "09 - lysty.wav" WAVE
INDEX 01 00:00:00
FILE "10 - mayak kolomyya.wav" WAVE
TRACK 10 AUDIO
TITLE "mayak kolomyya"
PERFORMER "Фактично Самi"
INDEX 01 00:00:00
TRACK 11 AUDIO
TITLE "pyzdet's ko...nu"
PERFORMER "Фактично Самi"
INDEX 00 03:38:10
FILE "11 - pyzdet's ko...nu.wav" WAVE
INDEX 01 00:00:00
FILE "12 - potsilunky 9'.wav" WAVE
TRACK 12 AUDIO
TITLE "potsilunky 9'"
PERFORMER "Фактично Самi"
INDEX 01 00:00:00
FILE "13 - no logo.wav" WAVE
TRACK 13 AUDIO
TITLE "no logo"
PERFORMER "Фактично Самi"
INDEX 01 00:00:00
TRACK 14 AUDIO
TITLE "ty ne zbudzhuyesh mene"
PERFORMER "Фактично Самi"
INDEX 00 03:33:50
FILE "14 - ty ne zbudzhuyesh mene.wav" WAVE
INDEX 01 00:00:00
TRACK 15 MODEx/2xxx
TITLE "Data track"
PERFORMER "Фактично Самi"
INDEX 00 03:10:29
Звiт auCDtect Task manager:
Код:
-----------------------

DON'T MODIFY THIS FILE

-----------------------

PERFORMER: auCDtect Task Manager, ver. 1.5.1RC6 build 1.5.1.7
Copyright (c) 2008-2010 y-soft. All rights reserved
http://y-soft.org

ANALYZER: auCDtect: CD records authenticity detector, version 0.8.2
Copyright (c) 2004 Oleg Berngardt. All rights reserved.
Copyright (c) 2004 Alexander Djourik. All rights reserved.

FILE: 14 - ty ne zbudzhuyesh mene.flac
Size: 23528599 Hash: 425EC2411B99506368FEC7368A61EFDA Accuracy: -m0
Conclusion: CDDA 100%
Signature: 52AC1CC3E1F39DF7D2A2055BBD3EE41FD29BA8AC
FILE: 13 - no logo.flac
Size: 26660237 Hash: ED6C495661951F187B1D250AD3E125F8 Accuracy: -m0
Conclusion: CDDA 100%
Signature: 446EED9E6A9463895CB9F4AE19577B67236B3B16
FILE: 12 - potsilunky 9'.flac
Size: 34440868 Hash: C9593D1D172D90183C62080B7703736A Accuracy: -m0
Conclusion: CDDA 100%
Signature: 317FF63E157741EE7DF91AB0B0519CFCFD753733
FILE: 11 - pyzdet's ko...nu.flac
Size: 29920498 Hash: A37513C6CF1FD62B45B810A7579F7DE8 Accuracy: -m0
Conclusion: CDDA 99%
Signature: 86F582060E51EDEF89F91701032985B2367984E7
FILE: 10 - mayak kolomyya.flac
Size: 28916922 Hash: B695BC12DBE322239214C9B71FA248D3 Accuracy: -m0
Conclusion: CDDA 100%
Signature: B17A687C62F042928F0E9C45E640050AA0CBEE09
FILE: 09 - lysty.flac
Size: 28521999 Hash: 85CF5B06E4D6D1756A5ED67EFDC95DB2 Accuracy: -m0
Conclusion: CDDA 100%
Signature: F1BBC59A576F9C1BD735275CF771A6CC6EB9EC26
FILE: 08 - dr. Pit Boo-Lee.flac
Size: 29385704 Hash: 9C2EA2C2743DE272DE7ED0F5DA49DBAD Accuracy: -m0
Conclusion: CDDA 100%
Signature: 926A351B8D22A089F27703D91D416BC387D46AA1
FILE: 07 - POPelushka.flac
Size: 29844910 Hash: 39001B20D2E4A8C8FC01FA6DE82DCCFA Accuracy: -m0
Conclusion: CDDA 100%
Signature: 6D10D1512191A77D25E816F04A020FE229AC5ED9
FILE: 06 - faktychno vyhraut' vsikh.flac
Size: 34121277 Hash: 3D3C93B3D2203D72D589DFB1159B4193 Accuracy: -m0
Conclusion: CDDA 99%
Signature: 87178786FEAFDC7A89091A5CC52F10E7A2B9F6CD
FILE: 05 - lovesong-0-667.flac
Size: 34839900 Hash: 56246E5F3669541DAF9949FEDA89F58E Accuracy: -m0
Conclusion: CDDA 100%
Signature: 9A6E241CE74757534B7A2AF9ED3EAE09481746E3
FILE: 04 - sashahuy.flac
Size: 29543383 Hash: 165B4B005EBCF13C95FB59BB4BFBE5F0 Accuracy: -m0
Conclusion: CDDA 99%
Signature: EB7AD55E997943C051E313B3298D53D337191A86
FILE: 03 - ya povtoruu T.B..flac
Size: 29728582 Hash: 7FF556CB03A249A66217D7DF68A135E3 Accuracy: -m0
Conclusion: CDDA 100%
Signature: 781659E3632800B7333ACCA6290759FE264F6090
FILE: 02 - lyube libido.flac
Size: 30389792 Hash: 5F38DF0CE8DAAF2DB232E7BEB1FA6D8F Accuracy: -m0
Conclusion: CDDA 100%
Signature: E6F8128BCF4FCD981243503DC29E143FE0CBCE39
FILE: 01 - cyri-yan.flac
Size: 34518056 Hash: 6D95CA5F56AEF7D0F860F0639C44F682 Accuracy: -m0
Conclusion: CDDA 100%
Signature: 988DE54C3260E557CCAB7DCA1ED5709DF123F0BD
2005 - Lo-Fi TRaвми

Ірена Карпа (Фактично самі, Qarpa) - Дискографiя (7 CD) (2001-11) [FLAC] | Alternative / Lo-Fi

Треклист:
01 | Lo-Fi Universe | 01:57
02 | [email protected] bpm | 04:36
03 | Вродливе м'ясо | 04:03
04 | Обернися | 04:55
05 | Довго в рай | 04:58
06 | Дивина | 03:20
07 | Letter 2 бабуня | 04:45
08 | Діброва | 04:05
09 | Залишай | 03:49
10 | Мій перший мармуровий бог (спи собі сам) | 06:54
11 | Русальчина | 05:10
12 | Мій другий мармуровий бог (сарана) | 04:42
13 | Небо | 04:21
14 | Мій 3-й мармуровий бог (reprise) | 11:55
15 | По всіх або mc rmx | 00:22
16 | Очі твої | 03:12

Видавець: СПД Мельничук
Тривалість: 01:13:12
Мова: українська, у деяких треках (5, 10, 13) англійська балачка, у першому — іспанська (?), російська, французька, шведська (?), ше якісь))... ВІДСУТНЯ разом з музикою та іншими звуками (15)
Бітрейт: 783 - 1013 кб/с
Звiт EAC:

Код:
Exact Audio Copy V0.99 prebeta 4 from 23. January 2008

EAC extraction logfile from 5. July 2009, 12:26

Фактично Самі / Lo-Fi TRaвми

Used drive : HL-DT-STDVD-RAM GSA-H58N Adapter: 0 ID: 0

Read mode : Secure
Utilize accurate stream : Yes
Defeat audio cache : Yes
Make use of C2 pointers : No

Read offset correction : 102
Overread into Lead-In and Lead-Out : No
Fill up missing offset samples with silence : Yes
Delete leading and trailing silent blocks : No
Null samples used in CRC calculations : Yes
Used interface : Native Win32 interface for Win NT & 2000
Gap handling : Appended to previous track

Used output format : User Defined Encoder
Selected bitrate : 1024 kBit/s
Quality : High
Add ID3 tag : No
Command line compressor : C:\Program Files\FLAC\flac.exe
Additional command line options : -8 -V -T "ARTIST=%a" -T "TITLE=%t" -T "ALBUM=%g" -T "DATE=%y" -T "TRACKNUMBER=%n" -T "GENRE=%m" -T "COMMENT=EAC FLAC -8" %s

TOC of the extracted CD

Track | Start | Length | Start sector | End sector
---------------------------------------------------------
1 | 0:00.00 | 1:57.00 | 0 | 8774
2 | 1:57.00 | 4:36.64 | 8775 | 29538
3 | 6:33.64 | 4:03.30 | 29539 | 47793
4 | 10:37.19 | 4:55.62 | 47794 | 69980
5 | 15:33.06 | 4:58.48 | 69981 | 92378
6 | 20:31.54 | 3:20.41 | 92379 | 107419
7 | 23:52.20 | 4:45.05 | 107420 | 128799
8 | 28:37.25 | 4:05.35 | 128800 | 147209
9 | 32:42.60 | 3:49.12 | 147210 | 164396
10 | 36:31.72 | 6:54.73 | 164397 | 195519
11 | 43:26.70 | 5:10.57 | 195520 | 218826
12 | 48:37.52 | 4:42.37 | 218827 | 240013
13 | 53:20.14 | 4:21.24 | 240014 | 259612
14 | 57:41.38 | 11:55.53 | 259613 | 313290
15 | 69:37.16 | 0:22.59 | 313291 | 314999
16 | 70:00.00 | 3:12.09 | 315000 | 329408

Track 1

Filename D:\Фактично Самі - Lo Fi TRавми [2005] -2002\01 - Lo-Fi Universe.wav

Pre-gap length 0:00:02.00

Peak level 62.4 %
Track quality 100.0 %
Test CRC AE1319C2
Copy CRC AE1319C2
Track not present in AccurateRip database
Copy OK

Track 2

Filename D:\Фактично Самі - Lo Fi TRавми [2005] -2002\02 - [email protected] bpm.wav

Peak level 97.7 %
Track quality 100.0 %
Test CRC 453B2E32
Copy CRC 453B2E32
Track not present in AccurateRip database
Copy OK

Track 3

Filename D:\Фактично Самі - Lo Fi TRавми [2005] -2002\03 - Вродливе м'ясо.wav

Peak level 97.7 %
Track quality 99.9 %
Test CRC 3FF5F13C
Copy CRC 3FF5F13C
Track not present in AccurateRip database
Copy OK

Track 4

Filename D:\Фактично Самі - Lo Fi TRавми [2005] -2002\04 - Обернися.wav

Peak level 97.7 %
Track quality 100.0 %
Test CRC BC67579A
Copy CRC BC67579A
Track not present in AccurateRip database
Copy OK

Track 5

Filename D:\Фактично Самі - Lo Fi TRавми [2005] -2002\05 - Довго в рай.wav

Peak level 97.7 %
Track quality 100.0 %
Test CRC C3C61FE6
Copy CRC C3C61FE6
Track not present in AccurateRip database
Copy OK

Track 6

Filename D:\Фактично Самі - Lo Fi TRавми [2005] -2002\06 - Дивина.wav

Pre-gap length 0:00:53.00

Peak level 97.7 %
Track quality 99.9 %
Test CRC BB939136
Copy CRC BB939136
Track not present in AccurateRip database
Copy OK

Track 7

Filename D:\Фактично Самі - Lo Fi TRавми [2005] -2002\07 - Letter 2 бабуня.wav

Peak level 97.7 %
Track quality 100.0 %
Test CRC CCA2CFBF
Copy CRC CCA2CFBF
Track not present in AccurateRip database
Copy OK

Track 8

Filename D:\Фактично Самі - Lo Fi TRавми [2005] -2002\08 - Діброва.wav

Peak level 97.7 %
Track quality 100.0 %
Test CRC E6A4807D
Copy CRC E6A4807D
Track not present in AccurateRip database
Copy OK

Track 9

Filename D:\Фактично Самі - Lo Fi TRавми [2005] -2002\09 - Залишай.wav

Peak level 97.7 %
Track quality 100.0 %
Test CRC 0C9529D6
Copy CRC 0C9529D6
Track not present in AccurateRip database
Copy OK

Track 10

Filename D:\Фактично Самі - Lo Fi TRавми [2005] -2002\10 - Мій перший мармуровий бог (спи собі сам).wav

Peak level 97.7 %
Track quality 100.0 %
Test CRC CB6F6D76
Copy CRC CB6F6D76
Track not present in AccurateRip database
Copy OK

Track 11

Filename D:\Фактично Самі - Lo Fi TRавми [2005] -2002\11 - Русальчина.wav

Pre-gap length 0:01:16.70

Peak level 95.8 %
Track quality 100.0 %
Test CRC D652093E
Copy CRC D652093E
Track not present in AccurateRip database
Copy OK

Track 12

Filename D:\Фактично Самі - Lo Fi TRавми [2005] -2002\12 - Мій другий мармуровий бог (сарана).wav

Peak level 97.7 %
Track quality 100.0 %
Test CRC FABB2BFE
Copy CRC FABB2BFE
Track not present in AccurateRip database
Copy OK

Track 13

Filename D:\Фактично Самі - Lo Fi TRавми [2005] -2002\13 - Небо.wav

Pre-gap length 0:00:30.22

Peak level 97.7 %
Track quality 99.9 %
Test CRC 39FE8A3E
Copy CRC 39FE8A3E
Track not present in AccurateRip database
Copy OK

Track 14

Filename D:\Фактично Самі - Lo Fi TRавми [2005] -2002\14 - Мій 3-й мармуровий бог (reprise).wav

Pre-gap length 0:00:52.94

Peak level 97.7 %
Track quality 100.0 %
Test CRC ACC9913D
Copy CRC ACC9913D
Track not present in AccurateRip database
Copy OK

Track 15

Filename D:\Фактично Самі - Lo Fi TRавми [2005] -2002\15 - По всіх або mc rmx.wav

Peak level 94.8 %
Track quality 100.0 %
Test CRC 898D6E44
Copy CRC 898D6E44
Track not present in AccurateRip database
Copy OK

Track 16

Filename D:\Фактично Самі - Lo Fi TRавми [2005] -2002\16 - Очі твої.wav

Peak level 97.7 %
Track quality 100.0 %
Test CRC 89B6DD3A
Copy CRC 89B6DD3A
Track not present in AccurateRip database
Copy OK

None of the tracks are present in the AccurateRip database

No errors occurred

End of status report
CUE:

Код:
REM GENRE "Ukrainian Progressive Rock/Hardcore/Industrial/Trip-Hop"
REM DATE 2005
REM DISCID E4112810
REM COMMENT "ExactAudioCopy v0.99pb4"
PERFORMER "Фактично Самі"
TITLE "Lo-Fi TRaвми"
FILE "01 - Lo-Fi Universe.wav" WAVE
TRACK 01 AUDIO
TITLE "Lo-Fi Universe"
PERFORMER "Фактично Самі"
INDEX 01 00:00:00
FILE "02 - [email protected] bpm.wav" WAVE
TRACK 02 AUDIO
TITLE "[email protected] bpm"
PERFORMER "Фактично Самі"
INDEX 01 00:00:00
FILE "03 - Вродливе м'ясо.wav" WAVE
TRACK 03 AUDIO
TITLE "Вродливе м'ясо"
PERFORMER "Фактично Самі"
INDEX 01 00:00:00
FILE "04 - Обернися.wav" WAVE
TRACK 04 AUDIO
TITLE "Обернися"
PERFORMER "Фактично Самі"
INDEX 01 00:00:00
FILE "05 - Довго в рай.wav" WAVE
TRACK 05 AUDIO
TITLE "Довго в рай"
PERFORMER "Фактично Самі"
INDEX 01 00:00:00
TRACK 06 AUDIO
TITLE "Дивина"
PERFORMER "Фактично Самі"
INDEX 00 04:05:48
FILE "06 - Дивина.wav" WAVE
INDEX 01 00:00:00
FILE "07 - Letter 2 бабуня.wav" WAVE
TRACK 07 AUDIO
TITLE "Letter 2 бабуня"
PERFORMER "Фактично Самі"
INDEX 01 00:00:00
FILE "08 - Діброва.wav" WAVE
TRACK 08 AUDIO
TITLE "Діброва"
PERFORMER "Фактично Самі"
INDEX 01 00:00:00
FILE "09 - Залишай.wav" WAVE
TRACK 09 AUDIO
TITLE "Залишай"
PERFORMER "Фактично Самі"
INDEX 01 00:00:00
FILE "10 - Мій перший мармуровий бог (спи собі сам).wav" WAVE
TRACK 10 AUDIO
TITLE "Мій перший мармуровий бог (спи собі сам)"
PERFORMER "Фактично Самі"
INDEX 01 00:00:00
TRACK 11 AUDIO
TITLE "Русальчина"
PERFORMER "Фактично Самі"
INDEX 00 05:38:20
FILE "11 - Русальчина.wav" WAVE
INDEX 01 00:00:00
FILE "12 - Мій другий мармуровий бог (сарана).wav" WAVE
TRACK 12 AUDIO
TITLE "Мій другий мармуровий бог (сарана)"
PERFORMER "Фактично Самі"
INDEX 01 00:00:00
TRACK 13 AUDIO
TITLE "Небо"
PERFORMER "Фактично Самі"
INDEX 00 04:12:20
FILE "13 - Небо.wav" WAVE
INDEX 01 00:00:00
TRACK 14 AUDIO
TITLE "Мій 3-й мармуровий бог (reprise)"
PERFORMER "Фактично Самі"
INDEX 00 03:28:28
FILE "14 - Мій 3-й мармуровий бог (reprise).wav" WAVE
INDEX 01 00:00:00
FILE "15 - По всіх або mc rmx.wav" WAVE
TRACK 15 AUDIO
TITLE "По всіх або mc rmx"
PERFORMER "Фактично Самі"
INDEX 01 00:00:00
FILE "16 - Очі твої.wav" WAVE
TRACK 16 AUDIO
TITLE "Очі твої"
PERFORMER "Фактично Самі"
INDEX 01 00:00:00
Звiт auCDtect Task manager:

Код:
-----------------------

DON'T MODIFY THIS FILE

-----------------------

PERFORMER: auCDtect Task Manager, ver. 1.5.1RC6 build 1.5.1.7
Copyright (c) 2008-2010 y-soft. All rights reserved
http://y-soft.org

ANALYZER: auCDtect: CD records authenticity detector, version 0.8.2
Copyright (c) 2004 Oleg Berngardt. All rights reserved.
Copyright (c) 2004 Alexander Djourik. All rights reserved.

FILE: 16 - Очі твої.flac
Size: 24337173 Hash: 98856303D6ED63ADB463A92A98F5DCC0 Accuracy: -m0
Conclusion: CDDA 100%
Signature: 49D6BBC447635619ECDE75AF6A31018B461E4493
FILE: 15 - По всіх або mc rmx.flac
Size: 13369 Hash: 5630D525515F275FBFA089699349DA6A Accuracy: -m0
Conclusion: CDDA 100%
Signature: 4F405178AB10D23A1D888ADF0171C3849424D525
FILE: 14 - Мій 3-й мармуровий бог (reprise).flac
Size: 72195724 Hash: B2D60B34B9A585674280BE6EC5FDC078 Accuracy: -m0
Conclusion: CDDA 100%
Signature: 97E7C7016B2FD28EA55D4215AE0665BFE0E75166
FILE: 13 - Небо.flac
Size: 26321952 Hash: D03FC144749E2D19466E5E04F8FDEE24 Accuracy: -m0
Conclusion: CDDA 100%
Signature: FA86D6827C29C3C9AAEA851CFE6771C279E3B336
FILE: 12 - Мій другий мармуровий бог (сарана).flac
Size: 34566617 Hash: 3ABBE21BA6F6269CD91813E01CA03023 Accuracy: -m0
Conclusion: CDDA 100%
Signature: 5DD3175874EA98B1D837376293592216BA3D0AAE
FILE: 11 - Русальчина.flac
Size: 37394063 Hash: 9A87EB1BAEEE48113C878313FD5A3AE7 Accuracy: -m0
Conclusion: CDDA 100%
Signature: BA0AB34E4BC0905A72F4BF20B0AB2BB5D5597944
FILE: 10 - Мій перший мармуровий бог (спи собі сам).flac
Size: 46586904 Hash: FA3F1E8DA78919D6E0392F3BC5CCAD51 Accuracy: -m0
Conclusion: CDDA 100%
Signature: 4FA922F5CB62EDEB694E54ECE3E33624C64448DF
FILE: 09 - Залишай.flac
Size: 27090050 Hash: 1E6AC89CA0495BC749EA2A2C2718AA74 Accuracy: -m0
Conclusion: CDDA 100%
Signature: 035B7992E8224CC03D65A57FBE3E6B7A99BDF5C5
FILE: 08 - Діброва.flac
Size: 28878845 Hash: 435287ABE55A2199AFDBDD3FAE4B37D3 Accuracy: -m0
Conclusion: CDDA 100%
Signature: 890982151AA1D699892B84ED76034FF23B58388B
FILE: 07 - Letter 2 бабуня.flac
Size: 36075028 Hash: 89C6AD4430EC549F0222999A7E9D62B6 Accuracy: -m0
Conclusion: CDDA 100%
Signature: 4524CBA379ACE004783C2E78859E274018C0B667
FILE: 06 - Дивина.flac
Size: 21870891 Hash: EB6651258A13231B2E4BE0AE9BDA4F6C Accuracy: -m0
Conclusion: CDDA 100%
Signature: 20A8A4B67BFD4772557143CB834321943578901D
FILE: 05 - Довго в рай.flac
Size: 32913235 Hash: 270C536E3E67149FEDA1241ABF913C5A Accuracy: -m0
Conclusion: CDDA 100%
Signature: 8F2B6A695531CE82174A94EC1A90DA36B8BC44B5
FILE: 04 - Обернися.flac
Size: 33937345 Hash: 3F620E27AC1AF20FF4FEC4CC3E5D0170 Accuracy: -m0
Conclusion: CDDA 100%
Signature: BB8B8BEF9B84651226E787420FE4FA6638C2CAAE
FILE: 03 - Вродливе м'ясо.flac
Size: 31694120 Hash: 75BBF0B01283BB2304BA353E2B2F632C Accuracy: -m0
Conclusion: CDDA 100%
Signature: C0B2F9B9535D5054CC3BBA95C4CA7B87FAC0A755
FILE: 02 - [email protected] bpm.flac
Size: 34766587 Hash: EBF9B54E6C2EAEB7D778A802063F0B67 Accuracy: -m0
Conclusion: CDDA 100%
Signature: 2A8C3BD4DED698B0AD7E46F0A10E7FB8774FB496
FILE: 01 - Lo-Fi Universe.flac
Size: 11454074 Hash: 1EB813B9F08F41A40F21D0B7D2BE9DF0 Accuracy: -m0
Conclusion: CDDA 100%
Signature: B3B5E1833EF1B61A8B7C816A306AFE56895EE0D7
2007 - inЖИР

Ірена Карпа (Фактично самі, Qarpa) - Дискографiя (7 CD) (2001-11) [FLAC] | Alternative / Lo-Fi

Треклист:
01 | Sex | 04:11
02 | Lady Du | 03:54
03 | Я тебе з'їм | 03:53
04 | Кокаїн | 02:59
05 | Клей | 04:02
06 | &IF U Don't Love Me | 04:11
07 | Вибач, Ґандзю | 03:53
08 | Очі твої | 03:09
09 | Мантра | 04:13
10 | На мою кров | 04:59
11 | Рамка для сонця | 04:17
12 | Зникнути взагалі | 04:05
13 | Без мене | 04:15
14 | Мій перший мармуровий бог (Надто Сонна RMX) | 06:48

Бонус треки: (mp3, 192-280 кбит/с VBR)
15 | Листи (Надто Сонна REмікс) | 03:07
16 | Sex (Sphingida Remix) | 06:04

Видавець: ЯОК music
Тривалість:00:58:54
Мова: українська
Бітрейт: 932 кб/с
Звiт EAC:

Код:
Exact Audio Copy V0.99 prebeta 4 from 23. January 2008

Отчёт EAC об извлечении, выполненном 28. октября 2008, 20:28

Qarpa / inЖИР

Дисковод: HL-DT-STDVDRAM GSA-H42L Adapter: 0 ID: 0

Режим чтения : Достоверность
Использование точного потока : Да
Отключение кэша аудио : Да
Использование указателей C2 : Нет

Коррекция смещения при чтении : 667
Способность читать области Lead-in и Lead-out : Нет
Заполнение пропущенных сэмплов тишиной : Да
Удаление блоков с тишиной в начале и конце : Нет
При вычислениях CRC использовались нулевые сэмплы : Да
Интерфейс : Встроенный Win32-интерфейс для Win NT/2000

Выходной формат : Внутренние WAV-операции
Формат сэмплов : 44.100 Гц; 16 бит; стерео

TOC извлечённого CD

Трек | Старт | Длительность | Начальный сектор | Конечный сектор
---------------------------------------------------------------------
1 | 0:00.00 | 4:11.11 | 0 | 18835
2 | 4:11.11 | 3:54.20 | 18836 | 36405
3 | 8:05.31 | 3:53.30 | 36406 | 53910
4 | 11:58.61 | 2:59.47 | 53911 | 67382
5 | 14:58.33 | 4:02.66 | 67383 | 85598
6 | 19:01.24 | 4:11.61 | 85599 | 104484
7 | 23:13.10 | 3:53.48 | 104485 | 122007
8 | 27:06.58 | 3:09.56 | 122008 | 136238
9 | 30:16.39 | 4:13.04 | 136239 | 155217
10 | 34:29.43 | 4:59.32 | 155218 | 177674
11 | 39:29.00 | 4:17.00 | 177675 | 196949
12 | 43:46.00 | 4:05.45 | 196950 | 215369
13 | 47:51.45 | 4:15.04 | 215370 | 234498
14 | 52:06.49 | 6:48.21 | 234499 | 265119
15 | 61:26.70 | 1:48.36 | 276520 | 284655

Характеристики диапазона извлечения и сообщения об ошибках

Выбранный диапазон

Имя файла E:\Qarpa - inЖИР\Qarpa - inЖИР.wav

Пиковый уровень 97.7 %
Качество диапазона 100.0 %
CRC копии 57A4C528
Копирование... OK

Ошибок не произошло

AccurateRip: сводка

Трек 1 нет в базе данных
Трек 2 нет в базе данных
Трек 3 нет в базе данных
Трек 4 нет в базе данных
Трек 5 нет в базе данных
Трек 6 нет в базе данных
Трек 7 нет в базе данных
Трек 8 нет в базе данных
Трек 9 нет в базе данных
Трек 10 нет в базе данных
Трек 11 нет в базе данных
Трек 12 нет в базе данных
Трек 13 нет в базе данных
Трек 14 нет в базе данных

Ни одного трека нет в базе AccurateRip

Конец отчёта
CUE:
Код:
REM GENRE Alternative
REM DATE 2007
REM DISCID D30ED30F
REM COMMENT "ExactAudioCopy v0.99pb4"
PERFORMER "Qarpa"
TITLE "inЖИР"
FILE "Qarpa - inЖИР.flac" WAVE
TRACK 01 AUDIO
TITLE "Sex"
PERFORMER "Qarpa"
INDEX 01 00:00:00
TRACK 02 AUDIO
TITLE "Lady Du"
PERFORMER "Qarpa"
INDEX 01 04:11:11
TRACK 03 AUDIO
TITLE "Я тебе з'їм"
PERFORMER "Qarpa"
INDEX 01 08:05:31
TRACK 04 AUDIO
TITLE "Кокаїн"
PERFORMER "Qarpa"
INDEX 01 11:58:61
TRACK 05 AUDIO
TITLE "Клей"
PERFORMER "Qarpa"
INDEX 01 14:58:33
TRACK 06 AUDIO
TITLE "&IF U Don't Love Me"
PERFORMER "Qarpa"
INDEX 01 19:01:24
TRACK 07 AUDIO
TITLE "Вибач, Ґандзю"
PERFORMER "Qarpa"
INDEX 01 23:13:10
TRACK 08 AUDIO
TITLE "Очі твої"
PERFORMER "Qarpa"
INDEX 01 27:06:58
TRACK 09 AUDIO
TITLE "Мантра"
PERFORMER "Qarpa"
INDEX 01 30:16:39
TRACK 10 AUDIO
TITLE "На мою кров"
PERFORMER "Qarpa"
INDEX 01 34:29:43
TRACK 11 AUDIO
TITLE "Рамка для сонця"
PERFORMER "Qarpa"
INDEX 01 39:29:00
TRACK 12 AUDIO
TITLE "Зникнути взагалі"
PERFORMER "Qarpa"
INDEX 01 43:46:00
TRACK 13 AUDIO
TITLE "Без мене"
PERFORMER "Qarpa"
INDEX 01 47:51:45
TRACK 14 AUDIO
TITLE "Мій перший мармуровий бог (Надто Сонна RMX)"
PERFORMER "Qarpa"
INDEX 01 52:06:49
Звiт auCDtect Task manager:

Код:
-----------------------

DON'T MODIFY THIS FILE

-----------------------

PERFORMER: auCDtect Task Manager, ver. 1.5.1RC6 build 1.5.1.7
Copyright (c) 2008-2010 y-soft. All rights reserved
http://y-soft.org

ANALYZER: auCDtect: CD records authenticity detector, version 0.8.2
Copyright (c) 2004 Oleg Berngardt. All rights reserved.
Copyright (c) 2004 Alexander Djourik. All rights reserved.

FILE: Qarpa - inЖИР.flac
Size: 411941718 Hash: 004418273AA8DAC9EEC41D9CA2D29B35 Accuracy: -m0
Conclusion: CDDA 100%
Signature: E055D4CADA4F141316F6B5C4857B266C626457A3
2007 - Kosmik Vacuum

Ірена Карпа (Фактично самі, Qarpa) - Дискографiя (7 CD) (2001-11) [FLAC] | Alternative / Lo-Fi

Треклист:
01 | Paleovisit | 01:19
02 | Allright | 04:07
03 | No Fear Featuring Visco Space Drums | 04:50
04 | No Fear Featuring Akoustik Drums | 00:26
05 | Kosmik Vakuum | 04:48
06 | The Shadow Of Your Body | 04:23
07 | Kosmos Will Not Forgive Our Mistakes | 04:38
08 | I am There | 04:50
09 | Scientists' Kosmik Diskussion | 01:16
10 | Rain | 04:26
11 | Flamming Sky Of Venus | 03:39
12 | Aktually Alone Year 2k21 Mars Sektion 34x3us | 01:31
13 | The Rocket Rushes Out To The Kosmos | 04:41
14 | Breakthrough In The Kosmik Relationship | 04:54
15 | 8a557q1s2E72 Instead Of Ba557q1s2E7Z | 04:08
16 | Robot Hero R-6 | 04:28
17 | Good News | 03:45
18 | Lullaby Theme | 01:35
19 | Morning Theme | 00:51
20 | I Know The Code | 03:53
21 | Going Home | 00:59
22 | Ukraine - Finland - Kosmos | 02:10

Видавець: Statue Records
Тривалість: 01:11:46
Мова: українська
Бітрейт: 387-987 кб/с
Звiт EAC:

Код:
Exact Audio Copy V0.99 prebeta 4 from 23. January 2008

EAC extraction logfile from 4. July 2009, 0:10

Actually Alone / Kosmik Vacuum

Used drive : HL-DT-STDVD-RAM GSA-H58N Adapter: 0 ID: 0

Read mode : Secure
Utilize accurate stream : Yes
Defeat audio cache : Yes
Make use of C2 pointers : No

Read offset correction : 102
Overread into Lead-In and Lead-Out : No
Fill up missing offset samples with silence : Yes
Delete leading and trailing silent blocks : No
Null samples used in CRC calculations : Yes
Used interface : Native Win32 interface for Win NT & 2000
Gap handling : Appended to previous track

Used output format : User Defined Encoder
Selected bitrate : 1024 kBit/s
Quality : High
Add ID3 tag : No
Command line compressor : C:\Program Files\FLAC\flac.exe
Additional command line options : -8 -V -T "ARTIST=%a" -T "TITLE=%t" -T "ALBUM=%g" -T "DATE=%y" -T "TRACKNUMBER=%n" -T "GENRE=%m" -T "COMMENT=EAC FLAC -8" %s

TOC of the extracted CD

Track | Start | Length | Start sector | End sector
---------------------------------------------------------
1 | 0:00.00 | 1:19.48 | 0 | 5972
2 | 1:19.48 | 4:07.14 | 5973 | 24511
3 | 5:26.62 | 4:50.62 | 24512 | 46323
4 | 10:17.49 | 0:26.49 | 46324 | 48322
5 | 10:44.23 | 4:48.00 | 48323 | 69922
6 | 15:32.23 | 4:23.59 | 69923 | 89706
7 | 19:56.07 | 4:38.66 | 89707 | 110622
8 | 24:34.73 | 4:50.20 | 110623 | 132392
9 | 29:25.18 | 1:16.27 | 132393 | 138119
10 | 30:41.45 | 4:26.74 | 138120 | 158143
11 | 35:08.44 | 3:39.02 | 158144 | 174570
12 | 38:47.46 | 1:31.27 | 174571 | 181422
13 | 40:18.73 | 4:41.59 | 181423 | 202556
14 | 45:00.57 | 4:54.14 | 202557 | 224620
15 | 49:54.71 | 4:08.03 | 224621 | 243223
16 | 54:02.74 | 4:28.23 | 243224 | 263346
17 | 58:31.22 | 3:45.46 | 263347 | 280267
18 | 62:16.68 | 1:35.20 | 280268 | 287412
19 | 63:52.13 | 0:51.43 | 287413 | 291280
20 | 64:43.56 | 3:53.03 | 291281 | 308758
21 | 68:36.59 | 0:59.56 | 308759 | 313239
22 | 69:36.40 | 2:10.16 | 313240 | 323005
23 | 74:18.56 | 5:06.64 | 334406 | 357419

Track 1

Filename D:\Фактично Самі - Космічний Вакуум [2007]\01 - Paleovisit.wav

Pre-gap length 0:00:02.00

Peak level 96.5 %
Track quality 100.0 %
Test CRC 66BAC384
Copy CRC 66BAC384
Track not present in AccurateRip database
Copy OK

Track 2

Filename D:\Фактично Самі - Космічний Вакуум [2007]\02 - Allright.wav

Peak level 96.6 %
Track quality 100.0 %
Test CRC 8845DD9C
Copy CRC 8845DD9C
Track not present in AccurateRip database
Copy OK

Track 3

Filename D:\Фактично Самі - Космічний Вакуум [2007]\03 - No Fear Featuring Visco Space Drums.wav

Peak level 89.8 %
Track quality 100.0 %
Test CRC 8CE33AB2
Copy CRC 8CE33AB2
Track not present in AccurateRip database
Copy OK

Track 4

Filename D:\Фактично Самі - Космічний Вакуум [2007]\04 - No Fear Featuring Akoustik Drums.wav

Peak level 89.3 %
Track quality 100.0 %
Test CRC 71D87FC6
Copy CRC 71D87FC6
Track not present in AccurateRip database
Copy OK

Track 5

Filename D:\Фактично Самі - Космічний Вакуум [2007]\05 - Kosmik Vakuum.wav

Peak level 96.5 %
Track quality 100.0 %
Test CRC 7B522D49
Copy CRC 7B522D49
Track not present in AccurateRip database
Copy OK

Track 6

Filename D:\Фактично Самі - Космічний Вакуум [2007]\06 - The Shadow Of Your Body.wav

Peak level 96.5 %
Track quality 100.0 %
Test CRC ED86A8B2
Copy CRC ED86A8B2
Track not present in AccurateRip database
Copy OK

Track 7

Filename D:\Фактично Самі - Космічний Вакуум [2007]\07 - Kosmos Will Not Forgive Our Mistakes.wav

Peak level 96.6 %
Track quality 100.0 %
Test CRC 96B74E09
Copy CRC 96B74E09
Track not present in AccurateRip database
Copy OK

Track 8

Filename D:\Фактично Самі - Космічний Вакуум [2007]\08 - I am There.wav

Peak level 96.6 %
Track quality 100.0 %
Test CRC D7A1A704
Copy CRC D7A1A704
Track not present in AccurateRip database
Copy OK

Track 9

Filename D:\Фактично Самі - Космічний Вакуум [2007]\09 - Scientists' Kosmik Diskussion.wav

Peak level 39.2 %
Track quality 99.8 %
Test CRC 8C40340D
Copy CRC 8C40340D
Track not present in AccurateRip database
Copy OK

Track 10

Filename D:\Фактично Самі - Космічний Вакуум [2007]\10 - Rain.wav

Peak level 96.9 %
Track quality 99.9 %
Test CRC 58C3708A
Copy CRC 58C3708A
Track not present in AccurateRip database
Copy OK

Track 11

Filename D:\Фактично Самі - Космічний Вакуум [2007]\11 - Flamming Sky Of Venus.wav

Peak level 96.6 %
Track quality 100.0 %
Test CRC 3473B01E
Copy CRC 3473B01E
Track not present in AccurateRip database
Copy OK

Track 12

Filename D:\Фактично Самі - Космічний Вакуум [2007]\12 - Aktually Alone Year 2k21 Mars Sektion 34x3us.wav

Peak level 90.2 %
Track quality 100.0 %
Test CRC BB44676D
Copy CRC BB44676D
Track not present in AccurateRip database
Copy OK

Track 13

Filename D:\Фактично Самі - Космічний Вакуум [2007]\13 - The Rocket Rushes Out To The Kosmos.wav

Peak level 96.6 %
Track quality 100.0 %
Test CRC 7F510794
Copy CRC 7F510794
Track not present in AccurateRip database
Copy OK

Track 14

Filename D:\Фактично Самі - Космічний Вакуум [2007]\14 - Breakthrough In The Kosmik Relationship.wav

Peak level 96.6 %
Track quality 99.9 %
Test CRC 96921684
Copy CRC 96921684
Track not present in AccurateRip database
Copy OK

Track 15

Filename D:\Фактично Самі - Космічний Вакуум [2007]\15 - 8a557q1s2E72 Instead Of Ba557q1s2E7Z.wav

Peak level 96.6 %
Track quality 99.9 %
Test CRC 4C46FF39
Copy CRC 4C46FF39
Track not present in AccurateRip database
Copy OK

Track 16

Filename D:\Фактично Самі - Космічний Вакуум [2007]\16 - Robot Hero R-6.wav

Peak level 96.6 %
Track quality 99.9 %
Test CRC 8542B92F
Copy CRC 8542B92F
Track not present in AccurateRip database
Copy OK

Track 17

Filename D:\Фактично Самі - Космічний Вакуум [2007]\17 - Good News.wav

Peak level 96.6 %
Track quality 100.0 %
Test CRC 7B7AE41D
Copy CRC 7B7AE41D
Track not present in AccurateRip database
Copy OK

Track 18

Filename D:\Фактично Самі - Космічний Вакуум [2007]\18 - Lullaby Theme.wav

Peak level 96.6 %
Track quality 100.0 %
Test CRC E597CE43
Copy CRC E597CE43
Track not present in AccurateRip database
Copy OK

Track 19

Filename D:\Фактично Самі - Космічний Вакуум [2007]\19 - Morning Theme.wav

Peak level 95.9 %
Track quality 100.0 %
Test CRC 735D0460
Copy CRC 735D0460
Track not present in AccurateRip database
Copy OK

Track 20

Filename D:\Фактично Самі - Космічний Вакуум [2007]\20 - I Know The Code.wav

Peak level 96.5 %
Track quality 100.0 %
Test CRC 2CF2AD62
Copy CRC 2CF2AD62
Track not present in AccurateRip database
Copy OK

Track 21

Filename D:\Фактично Самі - Космічний Вакуум [2007]\21 - Going Home.wav

Peak level 96.5 %
Track quality 99.8 %
Test CRC 68E29777
Copy CRC 68E29777
Track not present in AccurateRip database
Copy OK

Track 22

Filename D:\Фактично Самі - Космічний Вакуум [2007]\22 - Ukraine - Finland - Kosmos.wav

Peak level 96.5 %
Track quality 100.0 %
Test CRC 8C175862
Copy CRC 8C175862
Track not present in AccurateRip database
Copy OK

None of the tracks are present in the AccurateRip database

No errors occurred

End of status report
CUE:

Код:
REM GENRE Alternative
REM DATE 2007
REM DISCID 5C129D17
REM COMMENT "ExactAudioCopy v0.99pb4"
PERFORMER "Actually Alone"
TITLE "Kosmik Vacuum"
FILE "01 - Paleovisit.wav" WAVE
TRACK 01 AUDIO
TITLE "Paleovisit"
PERFORMER "Actually Alone"
INDEX 01 00:00:00
FILE "02 - Allright.wav" WAVE
TRACK 02 AUDIO
TITLE "Allright"
PERFORMER "Actually Alone"
INDEX 01 00:00:00
FILE "03 - No Fear Featuring Visco Space Drums.wav" WAVE
TRACK 03 AUDIO
TITLE "No Fear Featuring Visco Space Drums"
PERFORMER "Actually Alone"
INDEX 01 00:00:00
FILE "04 - No Fear Featuring Akoustik Drums.wav" WAVE
TRACK 04 AUDIO
TITLE "No Fear Featuring Akoustik Drums"
PERFORMER "Actually Alone"
INDEX 01 00:00:00
FILE "05 - Kosmik Vakuum.wav" WAVE
TRACK 05 AUDIO
TITLE "Kosmik Vakuum"
PERFORMER "Actually Alone"
INDEX 01 00:00:00
FILE "06 - The Shadow Of Your Body.wav" WAVE
TRACK 06 AUDIO
TITLE "The Shadow Of Your Body"
PERFORMER "Actually Alone"
INDEX 01 00:00:00
FILE "07 - Kosmos Will Not Forgive Our Mistakes.wav" WAVE
TRACK 07 AUDIO
TITLE "Kosmos Will Not Forgive Our Mistakes "
PERFORMER "Actually Alone"
INDEX 01 00:00:00
FILE "08 - I am There.wav" WAVE
TRACK 08 AUDIO
TITLE "I am There"
PERFORMER "Actually Alone"
INDEX 01 00:00:00
FILE "09 - Scientists' Kosmik Diskussion.wav" WAVE
TRACK 09 AUDIO
TITLE "Scientists' Kosmik Diskussion"
PERFORMER "Actually Alone"
INDEX 01 00:00:00
FILE "10 - Rain.wav" WAVE
TRACK 10 AUDIO
TITLE "Rain"
PERFORMER "Actually Alone"
INDEX 01 00:00:00
FILE "11 - Flamming Sky Of Venus.wav" WAVE
TRACK 11 AUDIO
TITLE "Flamming Sky Of Venus"
PERFORMER "Actually Alone"
INDEX 01 00:00:00
FILE "12 - Aktually Alone Year 2k21 Mars Sektion 34x3us.wav" WAVE
TRACK 12 AUDIO
TITLE "Aktually Alone Year 2k21 Mars Sektion 34x3us"
PERFORMER "Actually Alone"
INDEX 01 00:00:00
FILE "13 - The Rocket Rushes Out To The Kosmos.wav" WAVE
TRACK 13 AUDIO
TITLE "The Rocket Rushes Out To The Kosmos"
PERFORMER "Actually Alone"
INDEX 01 00:00:00
FILE "14 - Breakthrough In The Kosmik Relationship.wav" WAVE
TRACK 14 AUDIO
TITLE "Breakthrough In The Kosmik Relationship"
PERFORMER "Actually Alone"
INDEX 01 00:00:00
FILE "15 - 8a557q1s2E72 Instead Of Ba557q1s2E7Z.wav" WAVE
TRACK 15 AUDIO
TITLE "8a557q1s2E72 Instead Of Ba557q1s2E7Z"
PERFORMER "Actually Alone"
INDEX 01 00:00:00
FILE "16 - Robot Hero R-6.wav" WAVE
TRACK 16 AUDIO
TITLE "Robot Hero R-6"
PERFORMER "Actually Alone"
INDEX 01 00:00:00
FILE "17 - Good News.wav" WAVE
TRACK 17 AUDIO
TITLE "Good News"
PERFORMER "Actually Alone"
INDEX 01 00:00:00
FILE "18 - Lullaby Theme.wav" WAVE
TRACK 18 AUDIO
TITLE "Lullaby Theme"
PERFORMER "Actually Alone"
INDEX 01 00:00:00
FILE "19 - Morning Theme.wav" WAVE
TRACK 19 AUDIO
TITLE "Morning Theme"
PERFORMER "Actually Alone"
INDEX 01 00:00:00
FILE "20 - I Know The Code.wav" WAVE
TRACK 20 AUDIO
TITLE "I Know The Code"
PERFORMER "Actually Alone"
INDEX 01 00:00:00
FILE "21 - Going Home.wav" WAVE
TRACK 21 AUDIO
TITLE "Going Home"
PERFORMER "Actually Alone"
INDEX 01 00:00:00
FILE "22 - Ukraine - Finland - Kosmos.wav" WAVE
TRACK 22 AUDIO
TITLE "Ukraine - Finland - Kosmos"
PERFORMER "Actually Alone"
INDEX 01 00:00:00
TRACK 23 MODEx/2xxx
TITLE "Track23"
PERFORMER "Actually Alone"
INDEX 00 02:10:16
Звiт auCDtect Task manager:

Код:
-----------------------

DON'T MODIFY THIS FILE

-----------------------

PERFORMER: auCDtect Task Manager, ver. 1.5.1RC6 build 1.5.1.7
Copyright (c) 2008-2010 y-soft. All rights reserved
http://y-soft.org

ANALYZER: auCDtect: CD records authenticity detector, version 0.8.2
Copyright (c) 2004 Oleg Berngardt. All rights reserved.
Copyright (c) 2004 Alexander Djourik. All rights reserved.

FILE: 22 - Ukraine - Finland - Kosmos.flac
Size: 6860255 Hash: F62497AC8F4B0A307EEFAA65951F1D43 Accuracy: -m0
Conclusion: CDDA 100%
Signature: 70BF081D02F3AA3E04BC1334319436713721F1C0
FILE: 21 - Going Home.flac
Size: 3807126 Hash: E8E5A8314BFC95EB9F6C5B33A637E000 Accuracy: -m0
Conclusion: CDDA 100%
Signature: A73834EE1D66B331B329A23517D90F9C3F686864
FILE: 20 - I Know The Code.flac
Size: 26620426 Hash: BBC5181D95207D7D88E38AF3461F163E Accuracy: -m0
Conclusion: CDDA 100%
Signature: 88762E150A86540D99E7265D7B582C7F6FF3886C
FILE: 19 - Morning Theme.flac
Size: 4368969 Hash: 5D3988468825758D36118DF10BD0E636 Accuracy: -m0
Conclusion: CDDA 100%
Signature: D2896A8F086809875E7EF463A216788F74587643
FILE: 18 - Lullaby Theme.flac
Size: 11482083 Hash: 99605658EDD3511351A80223D1269334 Accuracy: -m0
Conclusion: CDDA 100%
Signature: 93116C1DF08376906EA42F0A49706032865DBAB5
FILE: 17 - Good News.flac
Size: 26142168 Hash: E76183F3B7346630704BF2A3FCBF1588 Accuracy: -m0
Conclusion: CDDA 100%
Signature: 6588F63ECD335D5C861BA71B1FE9EF825DB016E0
FILE: 16 - Robot Hero R-6.flac
Size: 32165685 Hash: 531D22D3FD0874B86A06EDB91C1670FB Accuracy: -m0
Conclusion: CDDA 100%
Signature: 734D90CFA62F5D558FF84196FA50BAD19C9A4551
FILE: 15 - 8a557q1s2E72 Instead Of Ba557q1s2E7Z.flac
Size: 26476655 Hash: DBADCC76FC93A55352812C2E19E50AEA Accuracy: -m0
Conclusion: CDDA 100%
Signature: 830FE3714E8C9969AB6C3F8F11859A4EAE6DDD4C
FILE: 14 - Breakthrough In The Kosmik Relationship.flac
Size: 29389555 Hash: 3276A7D0B7184607F193A96407575A6E Accuracy: -m0
Conclusion: CDDA 99%
Signature: BAFC2708CC31F28808F196B1A1CB8C5377B7A527
FILE: 13 - The Rocket Rushes Out To The Kosmos.flac
Size: 29304431 Hash: 872135833034896CEC3F9523939FCEF2 Accuracy: -m0
Conclusion: CDDA 100%
Signature: 024877FF223CA9ED9C7F0F45E5C973F228A1EFBE
FILE: 12 - Aktually Alone Year 2k21 Mars Sektion 34x3us.flac
Size: 7897632 Hash: 4F45FF71D396FAFF4FF98EF943A045D6 Accuracy: -m0
Conclusion: CDDA 100%
Signature: 5C94DD9DF5B379BFF807370A699F83CBE64E5E4B
FILE: 11 - Flamming Sky Of Venus.flac
Size: 25090989 Hash: 9BB6090DF28D988B9E1C467F21153662 Accuracy: -m0
Conclusion: CDDA 100%
Signature: B3AF344BE3B7A8FE4B1A5718D732A343BF057EC9
FILE: 10 - Rain.flac
Size: 29503297 Hash: 0664FD7434C4018ABA6ECE7099D76DC9 Accuracy: -m0
Conclusion: CDDA 99%
Signature: 2E19580F7DFAA19D223B7588F569EF0AD795E403
FILE: 09 - Scientists' Kosmik Diskussion.flac
Size: 3697921 Hash: 254CB94AF56376B3247E932DCFFB9E21 Accuracy: -m0
Conclusion: ???
Signature: 94BEB84DB3048D7D7DC20334DBB0924BA1AF5E44
FILE: 08 - I am There.flac
Size: 28401440 Hash: ABBFCBED6541B7A71D26B5E5E5A36413 Accuracy: -m0
Conclusion: CDDA 100%
Signature: 696923E561F386F7CF1B088ABD0F6B15C9386911
FILE: 07 - Kosmos Will Not Forgive Our Mistakes.flac
Size: 28074116 Hash: 714F3AAA631ED25B242E5A5DD00C9FEF Accuracy: -m0
Conclusion: CDDA 100%
Signature: DB0F31E5AB08C1CE2FBEE71BB9A8376A9B820EF2
FILE: 06 - The Shadow Of Your Body.flac
Size: 28646952 Hash: BC03E32504993169A413904F9A0E4712 Accuracy: -m0
Conclusion: CDDA 99%
Signature: 30ED934381901556C318764F165B45C0F9D395CB
FILE: 05 - Kosmik Vakuum.flac
Size: 29357273 Hash: 660218DE3AEFE052B4F6E6F0A70EBB41 Accuracy: -m0
Conclusion: CDDA 99%
Signature: EB9B7BD91174663090CE66DD332CB8A0DC406EE7
FILE: 04 - No Fear Featuring Akoustik Drums.flac
Size: 1877030 Hash: 90BCE18AAAC34D70BACD84A53B008790 Accuracy: -m0
Conclusion: CDDA 100%
Signature: 5A05024191E60D598D66FC55D744AA7983E0CC4A
FILE: 03 - No Fear Featuring Visco Space Drums.flac
Size: 25005694 Hash: 4152CF99AB5F9811A86AAA579B853A9D Accuracy: -m0
Conclusion: CDDA 100%
Signature: 95514A60776274A305365160E387A42411B97513
FILE: 02 - Allright.flac
Size: 30491618 Hash: 5E0CB8E177726176EEAF456DEE19B1DB Accuracy: -m0
Conclusion: CDDA 100%
Signature: FF5C9C4A8502CFAC0067C628E1C941830AACA6F2
FILE: 01 - Paleovisit.flac
Size: 5701295 Hash: E65C217173B6EF52B52302E7AC587FA5 Accuracy: -m0
Conclusion: CDDA 100%
Signature: 4A43973C351DBCE41BD905D2F0040C6747A77183
2011 - & I made a man

Ірена Карпа (Фактично самі, Qarpa) - Дискографiя (7 CD) (2001-11) [FLAC] | Alternative / Lo-Fi

Треклист:
01 | Please get out | 04:02
02 | Soledad | 04:00
03 | Me | 03:47
04 | My man | 04:18
05 | Can't UC | 04:11
06 | Touch 4 sure | 04:20
07 | My best rockets are all tired | 04:49
08 | Caro mio | 03:47
09 | Without fear | 04:51
10 | Lullaby | 04:04
11 | A song by a girl selling croissans in a boulangerie who fell in love with a regular customer so deeply that when she found out he was gay she was ready to cut her hair and lower her voice just to get a single kiss… | 03:49
12 | My picture | 04:25
13 | Only when dying | 04:17
14 | Fite me | 04:37
15 | No 1 like U | 04:11
16 | South China sea | 05:03

Видавець: Lavina Music
Тривалість: 01:08:37
Мова: англійська (1, 3-10, 12-16), іспанська та англійська (2), французька (11)
Бітрейт: 939 кб/с
Звiт EAC:

Код:
Exact Audio Copy V1.0 beta 2 from 29. April 2011

EAC extraction logfile from 15. October 2011, 14:29

Qarpa / & I made a man

Used drive : Optiarc DVD RW AD-7530B Adapter: 0 ID: 0

Read mode : Secure
Utilize accurate stream : Yes
Defeat audio cache : Yes
Make use of C2 pointers : No

Read offset correction : 6
Overread into Lead-In and Lead-Out : No
Fill up missing offset samples with silence : Yes
Delete leading and trailing silent blocks : No
Null samples used in CRC calculations : Yes
Used interface : Native Win32 interface for Win NT & 2000

Used output format : Internal WAV Routines
Sample format : 44.100 Hz; 16 Bit; Stereo

TOC of the extracted CD

Track | Start | Length | Start sector | End sector
---------------------------------------------------------
1 | 0:00.00 | 4:02.55 | 0 | 18204
2 | 4:02.55 | 4:00.67 | 18205 | 36271
3 | 8:03.47 | 3:47.19 | 36272 | 53315
4 | 11:50.66 | 4:18.34 | 53316 | 72699
5 | 16:09.25 | 4:11.48 | 72700 | 91572
6 | 20:20.73 | 4:20.09 | 91573 | 111081
7 | 24:41.07 | 4:49.09 | 111082 | 132765
8 | 29:30.16 | 3:47.22 | 132766 | 149812
9 | 33:17.38 | 4:51.22 | 149813 | 171659
10 | 38:08.60 | 4:04.20 | 171660 | 189979
11 | 42:13.05 | 3:49.56 | 189980 | 207210
12 | 46:02.61 | 4:25.41 | 207211 | 227126
13 | 50:28.27 | 4:17.03 | 227127 | 246404
14 | 54:45.30 | 4:37.23 | 246405 | 267202
15 | 59:22.53 | 4:11.16 | 267203 | 286043
16 | 63:33.69 | 5:03.41 | 286044 | 308809

Range status and errors

Selected range

Filename C:\Music\Qarpa - & I made a man (2011)\Qarpa - & I made a man.wav

Peak level 97.7 %
Extraction speed 4.6 X
Range quality 99.9 %
Copy CRC A5EB8B3F
Copy OK

No errors occurred

AccurateRip summary

Track 1 not present in database
Track 2 not present in database
Track 3 not present in database
Track 4 not present in database
Track 5 not present in database
Track 6 not present in database
Track 7 not present in database
Track 8 not present in database
Track 9 not present in database
Track 10 not present in database
Track 11 not present in database
Track 12 not present in database
Track 13 not present in database
Track 14 not present in database
Track 15 not present in database
Track 16 not present in database

None of the tracks are present in the AccurateRip database

End of status report
CUE:
Код:
REM GENRE Post Trip-Hop/Rock
REM DATE 2011
REM DISCID E8101510
REM COMMENT "ExactAudioCopy v1.0b2"
PERFORMER "Qarpa"
TITLE "& I made a man"
FILE "Qarpa - & I made a man.flac" WAVE
TRACK 01 AUDIO
TITLE "Please get out"
PERFORMER "Qarpa"
INDEX 01 00:00:00
TRACK 02 AUDIO
TITLE "Soledad"
PERFORMER "Qarpa"
INDEX 01 04:02:55
TRACK 03 AUDIO
TITLE "Me"
PERFORMER "Qarpa"
INDEX 01 08:03:47
TRACK 04 AUDIO
TITLE "My man"
PERFORMER "Qarpa"
INDEX 01 11:50:66
TRACK 05 AUDIO
TITLE "Can't UC"
PERFORMER "Qarpa"
INDEX 01 16:09:25
TRACK 06 AUDIO
TITLE "Touch 4 sure"
PERFORMER "Qarpa"
INDEX 01 20:20:73
TRACK 07 AUDIO
TITLE "My best rockets are all tired"
PERFORMER "Qarpa"
INDEX 01 24:41:07
TRACK 08 AUDIO
TITLE "Caro mio"
PERFORMER "Qarpa"
INDEX 01 29:30:16
TRACK 09 AUDIO
TITLE "Without fear"
PERFORMER "Qarpa"
INDEX 01 33:17:38
TRACK 10 AUDIO
TITLE "Lullaby"
PERFORMER "Qarpa"
INDEX 01 38:08:60
TRACK 11 AUDIO
TITLE "A song by a girl selling croissans in a boulangerie who fell in love with a regular customer so deeply that when she found out he was gay she was ready to cut her hair and lower her voice just to get a single kiss…"
PERFORMER "Qarpa"
INDEX 01 42:13:05
TRACK 12 AUDIO
TITLE "My picture"
PERFORMER "Qarpa"
INDEX 01 46:02:61
TRACK 13 AUDIO
TITLE "Only when dying"
PERFORMER "Qarpa"
INDEX 01 50:28:27
TRACK 14 AUDIO
TITLE "Fite me"
PERFORMER "Qarpa"
INDEX 01 54:45:30
TRACK 15 AUDIO
TITLE "No 1 like U"
PERFORMER "Qarpa"
INDEX 01 59:22:53
TRACK 16 AUDIO
TITLE "South China sea"
PERFORMER "Qarpa"
INDEX 01 63:33:69
Звiт auCDtect Task manager:

Код:
-----------------------

DON'T MODIFY THIS FILE

-----------------------

PERFORMER: auCDtect Task Manager, ver. 1.5.1RC6 build 1.5.1.7
Copyright (c) 2008-2010 y-soft. All rights reserved
http://y-soft.org

ANALYZER: auCDtect: CD records authenticity detector, version 0.8.2
Copyright (c) 2004 Oleg Berngardt. All rights reserved.
Copyright (c) 2004 Alexander Djourik. All rights reserved.

FILE: Qarpa - & I made a man.flac
Size: 485173135 Hash: 364160D5DFEA7FBF191763B5F4939A03 Accuracy: -m0
Conclusion: CDDA 100%
Signature: E41BBC923ADD37DF7903405F4843D7E3483E8396
Тривалість: 07:57:32
Мова: українська, англійська, іспанська, російська, французька, шведська
Аудіо-кодек: FLAC
Бітрейт: 387-1081 кб/с
Джерело: iнтернет
Додаткова інформація:
Карпа І. Bitches Get Everything (2007) [mobi, fb2] https://toloka.to/t61756


 Трекер:    Зареєстрований   

Завантажити / скачати українську музику



відео для новачків



 Зареєстрований:   2015-09-21 13:51
 Розмір:   3.09 GB 
 Оцінка музики:   8.5/10 (Голосів: 6)
   
kolpavel 
VIP


З нами з: 04.05.14
Востаннє: 11.12.16
Повідомлень: 1062

2015-09-21 13:55  
Мову допишу пiзнiше
ssTAss 
Модератор музики


З нами з: 05.07.08
Востаннє: 11.12.16
Повідомлень: 10958

2015-09-21 14:53  
спочатку написав, що мали б бути дві дискографії, але подумав, що це ж все ж таки один і той самий гурт, тільки назву змінив
але для дискографії замало альбомів
має бути
Цитата:

Дідькова гра (1999)
Б. П. П. (2001)
Космічний вакуум (2001)
Kurva Cum Back (2004)
Fuckтично Самі (Best Of 1995–2004) (2004)
Lo-Fi TRавми (2005)
IN ЖИР (2007)
And I Made The Man (2011)
Made in China (2015)

kolpavel 
VIP


З нами з: 04.05.14
Востаннє: 11.12.16
Повідомлень: 1062

2015-09-21 15:23  
7-м з 9-ти замало? Made in China (2015) - скоро буде, поки тiльки в MP3. А от з "Дідькова гра" (1999) - з FLAC проблеми.
gosha.samovar 
VIP


З нами з: 08.09.10
Востаннє: 10.12.16
Повідомлень: 400

2015-09-21 19:49  
Якщо автор хоче, можу дати скани космічного вакууму. І травми теж є скани.
І ще такий момент. Думаю, треба додати бонус-відео, де воно повинно бути.

kolpavel 
VIP


З нами з: 04.05.14
Востаннє: 11.12.16
Повідомлень: 1062

2015-09-21 20:54  
gosha.samovar
Дякую, дякую. Краще викладiть "Дідькова гра" (1999). В Україні (по закапелкам) простіше знайти цей альбом.

ssTAss 
Модератор музики


З нами з: 05.07.08
Востаннє: 11.12.16
Повідомлень: 10958

2015-09-21 21:14  
kolpavel написано:
7-м з 9-ти замало

замало
в дискографії мають бути всі альбоми, а так - Колекція
gosha.samovar написано:
Думаю, треба додати бонус-відео, де воно повинно бути.

я теж так вважаю
kolpavel написано:

Тривалість: 07:57:32
Мова: українська, англійська, іспанська, російська, французька, шведська
Аудіо-кодек: FLAC
Джерело: iнтернет

пропустили рядок Бітрейт
і більшість куе не робочі... викладені до вав-файлів, а не до флак
мали б перед викладенням перевірити... див. пункт 3.1 правил
краще б хтось зробив дискографію з нормальними ріпами (образ+куе+лог+скани)

kolpavel 
VIP


З нами з: 04.05.14
Востаннє: 11.12.16
Повідомлень: 1062

2015-09-21 22:03  
ssTAss Модератор музики,

1. Бітрейт вказаный в кожному диску - дивiця уважно.
2. Бонус - вiдео в цих альбомах не було.
3. Про дискографiю - бажано щоб всi альбоми, але тодi майже всi дискографії на цьому ресурсі виявляться зовсім не дискографії (по вашому).
4. "і більшість куе не робочі..." - це ви про що?

Шановний модератор, якщо вам не хочеться направляти в архiв ващi релiзи (якi згiдно правил повинi зараз туди пiти) то так i напишiть. А не пишiть різну нісенітницю з вашим побажаннями, що краще, а що ще краще (краще б хтось зробив дискографію з нормальними ріпами (образ+куе+лог+скани).

gosha.samovar 
VIP


З нами з: 08.09.10
Востаннє: 10.12.16
Повідомлень: 400

2015-09-21 22:16  
kolpavel написано:
Бонус - вiдео в цих альбомах не було.

Якщо не знаєте, навіщо казати? Зараз ліньки шукати диски, але, принаймні на Kurva Cum Back - три відео, це точно.
До речі, цікаво знати, звідки ви збираєтесь брати Дідькова гра у флак, якщо він не видавався на сіді?

ssTAss 
Модератор музики


З нами з: 05.07.08
Востаннє: 11.12.16
Повідомлень: 10958

2015-09-21 22:40  
kolpavel написано:
1. Бітрейт вказаный в кожному диску - дивiця уважно.

має бути і загальний (від і до)... дивіться (а не дивіця) уважно правила
kolpavel написано:
2. Бонус - вiдео в цих альбомах не було.

нема так нема, відповів на слова gosha.samovar, а не Ваші
може краще в нього попросити викласти з його дисків? пропонував ж він Вам скани, значить і диски має
kolpavel написано:
3. Про дискографiю - бажано щоб всi альбоми, але тодi майже всi дискографії на цьому ресурсі виявляться зовсім не дискографії (по вашому).

так, дискографія робиться зі всіх альбомів, а не частково (що знайшов)
якщо є приклад до Ваших звинувачень, то попрошу дати лінк
kolpavel написано:
4. "і більшість куе не робочі..." - це ви про що?

якщо Ви не знаєте, що таке куе (і з чим його "їдять"), то якого милого робите в розділі луслес?
прочитайте спочатку уважно основні "закони" луслесу хоча б тут http://toloka.to/t8404 і тут http://toloka.to/t9896 а потім говоріть нісенітниці
або просто спробуйте відкрити Ваші релізи через куе-файли
щодо "моїх" релізів, то мені байдуже абсолютно, просто дискографія має бути ідеальною, це ж бо "вершина")), її найбільше вантажать (бо хочуть все щоб було в одному місці), тому і вимоги такі
і свої "сарказми" засуньте собі глибоко в... шухляду Wide grin

kolpavel 
VIP


З нами з: 04.05.14
Востаннє: 11.12.16
Повідомлень: 1062

2015-09-22 11:34  
Модератор повинен бути безпристрастним. Так? Ось приклад для звинувачень в вашу адресу - 1. http://toloka.to/t5232, 2. http://toloka.to/t18823 3. http://toloka.to/t18780 4. http://toloka.to/t18764. Вашi релiзи? Вашi!

Я так розумію, що на цьому ресурсі ми існуємо за правилами, а не за поняттями, власним думками і бажаннями модератора?!

А тепер по суті релізу: 1. Загальний бітрейд додав. 2. Колекція? Хай буде так.
Що ще, панове?

Додано через 32 хвилини 33 секунди:

gosha.samovar написано:
Qarpa

"В перший альбом «Дiдькова гра» війшло 13 пісень, записаний він був в студії RRI". - якщо це правда, то повинен бути i лось.

civ 
VIP


З нами з: 16.02.11
Востаннє: 10.12.16
Повідомлень: 429

2015-09-22 20:16  
gosha.samovar, а викладіть кудись скани. Мій сканер зламався, я нічого не можу зробити. :-(

Додано через 1 хвилину 4 секунди:

ssTAss написано:
так, дискографія робиться зі всіх альбомів, а не частково (що знайшов)

Так а що ж робити, якщо альбом не виходив на CD, називати тему "CD-дискографія"?

ssTAss 
Модератор музики


З нами з: 05.07.08
Востаннє: 11.12.16
Повідомлень: 10958

2015-09-22 21:02  
kolpavel написано:
Ось приклад для звинувачень в вашу адресу - 1. http://toloka.to/t5232, 2. http://toloka.to/t18823 3. http://toloka.to/t18780 4. http://toloka.to/t18764. Вашi релiзи? Вашi!

і що не так з тими релізами? що на Вашу думку, в них порушує правила чи стосується до тих поправок, що написав Вам? прошу детальніше
повторюю, якщо не розумієте "філософію луслесу", то хоча б не пащекуйте, а читайте матчастину і дослухайтесь до порад
куе у Вас в деяких релізах не робочі (якщо вони в роздачі такі, які виклали в описі)
спробуйте но запустити файли через них і тоді переконаєтесь
civ написано:
Так а що ж робити, якщо альбом не виходив на CD

тоді, звісно, луслес дискографія може бути без нього (хоча деколи є можливість зняти копію в луслесі з касети)
тут мова йшла про останній альбом Карпи, який в мережі поки що є тільки в мр3... але ж він є на диску

gosha.samovar 
VIP


З нами з: 08.09.10
Востаннє: 10.12.16
Повідомлень: 400

2015-09-23 13:50  
Якийсь дивний. Пропонуєш допомогу - у відповідь казна-що. Ок, надалі знатиму.
kolpavel 
VIP


З нами з: 04.05.14
Востаннє: 11.12.16
Повідомлень: 1062

2015-09-23 16:04  
gosha.samovar
Це ви, кому? В кожному моєму рiпi Карпи, ви пропонуєте свої послуги то з продажу диска, то допомоги, про яку вас я не прошу. Допоможіть собі самі.

Додано через 11 хвилин 37 секунд:

ssTAss
Та не включайте простачка. Рiч не в якостi. З релiзами все так. Тiльки вони повинi будуть (при дискографiї) пiти в архiв. А як не дискографiя - то залишитись. Так, чи нi? I подруге, я запитав "Що ще, панове?". А ви менi про фiлософiю lossless data compression.

P.S. Ще раз перевiрив Cue. На залiзнiй Dune i AIMP3 - всi робочi.

kolpavel 
VIP


З нами з: 04.05.14
Востаннє: 11.12.16
Повідомлень: 1062

2015-09-25 20:56  
Шановнi колеги MP3 тут http://toloka.to/t68500
Леля22 
Попереджень: 2
Попереджень: 2 


З нами з: 22.07.15
Востаннє: 10.12.16
Повідомлень: 693

2015-10-01 20:55  
На одному сайті одна дівчинка на ім'я Майя написала була про Ірену Карпу під інтерв'ю Ірени Карпи таке: "а я її ЛЮ! Бо вона - ВІЛЬНА і СПРАВЖНЯ!!! )))"

А я приєднуюсь до дівчинки Майї, бо теж люблю Карпу за те, що вона вільна і справжня!)

Дяка релізерові.

gosha.samovar 
VIP


З нами з: 08.09.10
Востаннє: 10.12.16
Повідомлень: 400

2015-10-02 10:48  
А я приєднуюсь до Лелі)
kolpavel 
VIP


З нами з: 04.05.14
Востаннє: 11.12.16
Повідомлень: 1062

2015-10-02 11:50  
Леля22

На здоров'я. Більше всіх раби терпiти не можуть людей вільних, свободолюбивих. Вони (раби) їх нутром відчувають.

Леля22 
Попереджень: 2
Попереджень: 2 


З нами з: 22.07.15
Востаннє: 10.12.16
Повідомлень: 693

2015-10-02 19:29  
gosha.samovar написано:
А я приєднуюсь до Лелі)

Wink (2)

MoRRoN 
Новенький


З нами з: 08.03.16
Востаннє: 08.03.16
Повідомлень: 1

2016-03-08 14:39  
еще бы последний альбом для полного одиночества )))
в нас спілкуються українською

Леля22 
Попереджень: 2
Попереджень: 2 


З нами з: 22.07.15
Востаннє: 10.12.16
Повідомлень: 693

2016-03-08 19:05  
MoRRoN
вся фішка у вмінні змістити акценти. не самотня, а вільна.
не жаліти себе, а любити.
Самотність, свобода, щастя - все це внутрішній стан... Можна бути не самому й почуватися самотнім.
Можна бути у в'язниці й залишатися вільним.
здається, моя писанина схожа на аутотренінг))
але це справді так.

Додано через 21 хвилину 43 секунди:

дух мій заслабий і внутрішній стрижень теж... принаймні поки що.
і наче все розумію, але не роблю, а тільки говорю..

Ваш часовий пояс: GMT + 2 Години

Нова тема   Відповісти