Завантажити та скачати торренти українською


Основний інстинкт / Basic Instinct (1992) 1080p Ukr/Eng | Sub Eng

Нові коментарі

Нова тема   Відповісти
Автор Повідомлення
Alex60 
Забанено
Забанено


З нами з: 06.12.14
Востаннє: 24.07.16
Повідомлень: 40

2015-09-18 18:35  
Основний інстинкт / Basic Instinct (1992) 1080p Ukr/Eng | Sub Eng

Основний інстинкт / Basic Instinct (1992) 1080p Ukr/Eng | Sub Eng


Жанр: драма, детектив, психологічний, еротика, трилер
Країна: США, Францiя



Кінокомпанія: TriStar Pictures, Carolco Pictures Inc., Canal+
Режисер: Пол Верховен
Актори: Майкл Дуглас, Шерон Стоун, Джинн Трипплхорн та інші.

Сюжет:
Детектив Нік Каррен веде розслідування по справі збоченого вбивства на сексуальному підгрунті. Підозра падає на подругу вбитого — письменницю Кетрін. Кетрін є автором шокуючих романів, і в своїй останній книзі докладно описала абсолютно ідентичний злочин.
Чарівлива, неймовірно сексуальна письменниця, володіє дивною властивістю маніпулювати мужчинами, пробудивши в них один з основних інстинктів...


Тривалість: 02:08:15
Якість: 1080p
Відео:
кодек:
розмір кадру: 1920 х 820
бітрейт: 10600 кб/с

Аудіо # 1:
мова: українська
переклад: багатоголосий закадровий [Кіно]
кодек: 5.1
бітрейт: 448 кб/с

Аудіо # 2:
мова: англійська
переклад: оригінал
кодек: 5.1
бітрейт: 640 кб/с

Аудіо # 3:
мова: англійська
переклад: оригінал
кодек: -HD 6.1
бітрейт: 3066 кб/с

Аудіо # 4:
мова: англійська - Commentary [with Director Paul Verhoeven and director of photography Jan de Bont]
переклад: двоголосий закадровий
кодек: 2.0
бітрейт: 192 кб/с

Аудіо # 5:
мова: англійська - Commentary [with Professor of Humanities and Media Studies at the University of the Arts in Philadelphia Camille Paglia]
переклад: одноголосий закадровий
кодек: 2.0
бітрейт: 192 кб/с

Субтитри:
мова: англійська
тип: програмні (м'які)
формат: *.srt
MediaInfo
General
Unique ID : 218609757176053424866222620525603189064 (0xA476B52EFA0C826AB693E6D05291F148)
Complete name : S:\Basic Instinct [1992] 1080p UkrEng.mkv
Format : Matroska
Format version : Version 4 / Version 2
File size : 13.5 GiB
Duration : 2h 8mn
Overall bit rate : 15.1 Mbps
Movie name : Basic Instinct [1992] ' 1080p ©
Encoded date : UTC 2015-09-17 18:07:55
Writing application : mkvmerge v8.3.0 ('Over the Horizon') 64bit
Writing library : libebml v1.3.1 + libmatroska v1.4.2
Attachements : cover.jpg
DURATION : 02:08:15.424000000
NUMBER_OF_FRAMES : 240482
NUMBER_OF_BYTES : 184690176
_STATISTICS_WRITING_APP : mkvmerge v8.3.0 ('Over the Horizon') 64bit
_STATISTICS_WRITING_DATE_UTC : 2015-09-17 18:07:55
_STATISTICS_TAGS : BPS DURATION NUMBER_OF_FRAMES NUMBER_OF_BYTES

Video
ID : 1
Format : AVC
Format/Info : Advanced Video Codec
Format profile : [email protected]
Format settings, CABAC : Yes
Format settings, ReFrames : 5 frames
Codec ID : V_MPEG4/ISO/AVC
Duration : 2h 8mn
Bit rate : 10.6 Mbps
Width : 1 920 pixels
Height : 820 pixels
Display aspect ratio : 2.35:1
Frame rate mode : Constant
Frame rate : 23.976 fps
Color space : YUV
Chroma subsampling : 4:2:0
Bit depth : 8 bits
Scan type : Progressive
Bits/(Pixel*Frame) : 0.281
Stream size : 9.23 GiB (68%)
Title : Basic Instinct [1992] ' 1080p ©
Writing library : core 66 r1114M a933a3e
Encoding settings : cabac=1 / ref=5 / deblock=1:-1:-1 / analyse=0x3:0x113 / me=esa / subme=9 / psy_rd=1.4:0.2 / mixed_ref=0 / me_range=16 / chroma_me=1 / trellis=2 / 8x8dct=1 / cqm=0 / deadzone=21,11 / chroma_qp_offset=-3 / threads=6 / nr=0 / decimate=0 / mbaff=0 / bframes=4 / b_pyramid=0 / b_adapt=2 / b_bias=0 / direct=1 / wpredb=1 / keyint=250 / keyint_min=25 / scenecut=40(pre) / rc=2pass / bitrate=10600 / ratetol=1.0 / qcomp=0.60 / qpmin=10 / qpmax=51 / qpstep=4 / cplxblur=20.0 / qblur=0.5 / ip_ratio=1.40 / pb_ratio=1.30 / aq=1:0.80
Language : English
Default : Yes
Forced : No
DURATION : 02:08:15.325000000
NUMBER_OF_FRAMES : 184503
NUMBER_OF_BYTES : 10197191326
_STATISTICS_WRITING_APP : mkvmerge v8.3.0 ('Over the Horizon') 64bit
_STATISTICS_WRITING_DATE_UTC : 2015-09-17 18:07:55
_STATISTICS_TAGS : BPS DURATION NUMBER_OF_FRAMES NUMBER_OF_BYTES

Audio #1
ID : 2
Format : AC-3
Format/Info : Audio Coding 3
Mode extension : CM (complete main)
Format settings, Endianness : Big
Codec ID : A_AC3
Duration : 2h 8mn
Bit rate mode : Constant
Bit rate : 448 Kbps
Channel(s) : 6 channels
Channel positions : Front: L C R, Side: L R, LFE
Sampling rate : 48.0 KHz
Compression mode : Lossy
Stream size : 411 MiB (3%)
Title : Dolby Digital | 5.1 | 48 kHz | 16 bit | 448 kbps | Багатоголосий [Кіно]
Language : Ukrainian
Default : Yes
Forced : No

Audio #2
ID : 3
Format : AC-3
Format/Info : Audio Coding 3
Mode extension : CM (complete main)
Format settings, Endianness : Big
Codec ID : A_AC3
Duration : 2h 8mn
Bit rate mode : Constant
Bit rate : 640 Kbps
Channel(s) : 6 channels
Channel positions : Front: L C R, Side: L R, LFE
Sampling rate : 48.0 KHz
Compression mode : Lossy
Stream size : 587 MiB (4%)
Title : Dolby Digital | 5.1 | 48 kHz | 16 bit | 640 kbps | Original
Language : English
Default : No
Forced : No

Audio #3
ID : 4
Format :
Format/Info : Digital Theater Systems
Format profile : HRA / Core
Mode : 16
Format settings, Endianness : Big
Codec ID : A_DTS
Duration : 2h 8mn
Bit rate mode : Constant
Bit rate : 3 039 Kbps / 1 509 Kbps
Channel(s) : 7 channels / 6 channels
Channel positions : Front: L C R, Side: L R, Back: C, LFE / Front: L C R, Side: L R, LFE
Sampling rate : 48.0 KHz
Bit depth : 24 bits
Compression mode : Lossy
Stream size : 2.72 GiB (20%)
Title : -HD Ma | 6.1 | 48 kHz | 24 bit | 3066 kbps | Original
Language : English
Default : No
Forced : No

Audio #4
ID : 5
Format : AC-3
Format/Info : Audio Coding 3
Format profile : Dolby Digital
Mode extension : CM (complete main)
Format settings, Endianness : Big
Codec ID : A_AC3
Duration : 2h 8mn
Bit rate mode : Constant
Bit rate : 192 Kbps
Channel(s) : 2 channels
Channel positions : Front: L R
Sampling rate : 48.0 KHz
Compression mode : Lossy
Stream size : 176 MiB (1%)
Title : Dolby Digital | 2.0 | 48 kHz | 16 bit | 192 kbps | Commentary [with Director Paul Verhoeven and director of photography Jan de Bont]
Language : English
Default : No
Forced : No

Audio #5
ID : 6
Format : AC-3
Format/Info : Audio Coding 3
Format profile : Dolby Digital
Mode extension : CM (complete main)
Format settings, Endianness : Big
Codec ID : A_AC3
Duration : 2h 8mn
Bit rate mode : Constant
Bit rate : 192 Kbps
Channel(s) : 2 channels
Channel positions : Front: L R
Sampling rate : 48.0 KHz
Compression mode : Lossy
Stream size : 176 MiB (1%)
Title : Dolby Digital | 2.0 | 48 kHz | 16 bit | 192 kbps | Commentary [with Professor of Humanities and Media Studies at the University of the Arts in Philadelphia Camille Paglia]
Language : English
Default : No
Forced : No

Text
ID : 7
Format : UTF-8
Codec ID : S_TEXT/UTF8
Codec ID/Info : UTF-8 Plain Text
Title : Full
Language : English
Default : No
Forced : No

Menu
00:00:00.000 : en:Sex Crimes
00:07:20.857 : en:An Amateur
00:15:36.810 : en:Written Alibi
00:21:01.009 : en:Nothing to Hide
00:29:34.773 : en:Innocent Test
00:35:33.005 : en:Internal Affairs
00:40:29.176 : en:Reckless Pursuit
00:46:48.138 : en:Rough Edges
01:02:07.515 : en:Playing Games
01:11:34.415 : en:Pretty Good Beginning
01:20:44.881 : en:Deadly Chase
01:28:39.772 : en:Mind Manipulation
01:34:23.074 : en:Personal Files
01:41:37.299 : en:Researching Records
01:50:21.448 : en:Killer Story
01:58:32.605 : en:Happily Ever After
02:03:22.205 : en:End Credits
Info




Скріншоти



Велика подяка Romario_O та robotron005 за звукозапис з ТБ
Джерело:
Особиста оцінка: 10 - без зайвих вагань рекомендую всім!


Срібний реліз (на рейтинг впливає 50% завантаженого)
 Трекер:    Зареєстрований   

Завантажити / скачати фільм українською



відео для новачків



 Зареєстрований:   2015-09-18 18:35
 Розмір:   13.54 GB 
 Оцінка фільму:   10/10 (Голосів: 2)
   
igor911 
Відео Гуртом
Відео Гуртом


З нами з: 18.01.08
Востаннє: 06.12.16
Повідомлень: 5144

2015-09-18 21:53  
Alex60, ніде не бачив, щоб майже 3хгіговий -HD пхали у ріп, тим більше у такий старенький зі слабенькими параметрами кодування. Для ріпа достатньо і ядра ДТС.
bot 
робот


З нами з: 30.09.07
Востаннє: 26.05.05
Повідомлень: 16002

2016-07-24 22:12  
Тему перенесено з Фільми в HD до форуму Фінальний смітник


Alex60

bot 
робот


З нами з: 30.09.07
Востаннє: 26.05.05
Повідомлень: 16002

2016-07-25 13:30  
Тему перенесено з Фінальний смітник до форуму Фільми в HD


igor911

Ваш часовий пояс: GMT + 2 Години

Нова тема   Відповісти