Завантажити та скачати торренти українською


Шпигунка [Розширена версія] / Spy [Extended Cut] (2015) Remux 1080p Ukr/Eng | Sub Ukr/Eng

Нові коментарі

Нова тема   Відповісти
Автор Повідомлення
Alex60 
Забанено
Забанено


З нами з: 06.12.14
Востаннє: 24.07.16
Повідомлень: 40

2015-09-17 18:03  
Шпигунка [Розширена версія] / Spy [Extended Cut] (2015) Remux 1080p Ukr/Eng | Sub Ukr/Eng

Шпигунка [Розширена версія] / Spy [Extended Cut] (2015) Remux 1080p Ukr/Eng | Sub Ukr/Eng


Жанр: комедія, бойовик
Країна: США



Кінокомпанія: Twentieth Century Fox, Feigco Entertainment
Режисер: Пол Фiг
Актори: Мелісса МакКарті, Джейсон Стетем, Джуд Лоу, Роуз Бірн та інші.

Сюжет:
Сьюзан Купер – скромна кабінетна працівниця аналітичного відділу ЦРУ та неоспівана героїня, яка стоїть за найнебезпечнішими операціями Агентства. Проте, коли її напарник зникає, а іншого провідного агента викрито, вона добровільно бере на себе супер-таємну місію, щоб потрапити у середовище торговця смертельною зброєю та запобігти світовій катастрофі.


Тривалість: 02:10:23
Якість: Remux
Відео:
кодек:
розмір кадру: 1920 х 1080
бітрейт: 19400 кб/с

Аудіо # 1:
мова: українська
переклад: професійний дубльований [iTunes]
кодек: 2.0
бітрейт: 192 кб/с

Аудіо # 2:
мова: англійська
переклад: оригінал
кодек: -HD 7.1
бітрейт: 4760 кб/с

Аудіо # 3:
мова: англійська
переклад: багатоголосий закадровий [Commentary]
кодек: 2.0
бітрейт: 224 кб/с

Субтитри: Full [iTunes]
мова: українська
тип: програмні (м'які)
формат: *.srt

Субтитри: Full [iTunes]
мова: англійська
тип: програмні (м'які)
формат: *.srt
MediaInfo
General
Unique ID : 224811858337161792785202098056740078614 (0xA92130612805F930A9F38391D36E0416)
Complete name : S:\Spy [2015] Remux UkrEng.mkv
Format : Matroska
Format version : Version 4 / Version 2
File size : 22.3 GiB
Duration : 2h 10mn
Overall bit rate mode : Variable
Overall bit rate : 24.5 Mbps
Movie name : Spy [2015]'ReMux ©
Encoded date : UTC 2015-09-17 14:40:19
Writing application : mkvmerge v8.3.0 ('Over the Horizon') 64bit
Writing library : libebml v1.3.1 + libmatroska v1.4.2
Attachements : cover.jpg
DURATION : 02:09:14.712000000
NUMBER_OF_FRAMES : 2420
NUMBER_OF_BYTES : 129104
_STATISTICS_WRITING_APP : mkvmerge v8.3.0 ('Over the Horizon') 64bit
_STATISTICS_WRITING_DATE_UTC : 2015-09-17 14:40:19
_STATISTICS_TAGS : BPS DURATION NUMBER_OF_FRAMES NUMBER_OF_BYTES

Video
ID : 1
Format : AVC
Format/Info : Advanced Video Codec
Format profile : [email protected]
Format settings, CABAC : Yes
Format settings, ReFrames : 4 frames
Codec ID : V_MPEG4/ISO/AVC
Duration : 2h 10mn
Bit rate mode : Variable
Maximum bit rate : 35.0 Mbps
Width : 1 920 pixels
Height : 1 080 pixels
Display aspect ratio : 16:9
Frame rate mode : Constant
Frame rate : 23.976 fps
Color space : YUV
Chroma subsampling : 4:2:0
Bit depth : 8 bits
Scan type : Progressive
Default : Yes
Forced : No

Audio #1
ID : 2
Format : AC-3
Format/Info : Audio Coding 3
Mode extension : CM (complete main)
Format settings, Endianness : Big
Codec ID : A_AC3
Duration : 2h 10mn
Bit rate mode : Constant
Bit rate : 192 Kbps
Channel(s) : 2 channels
Channel positions : Front: L R
Sampling rate : 48.0 KHz
Compression mode : Lossy
Stream size : 179 MiB (1%)
Title : Dolby Digital | 2.0 | 48 kHz | 16 bit | 192 kbps | Дубляж [iTunes]
Language : Ukrainian
Default : Yes
Forced : No

Audio #2
ID : 3
Format :
Format/Info : Digital Theater Systems
Format profile : MA / Core
Mode : 16
Format settings, Endianness : Big
Codec ID : A_DTS
Duration : 2h 10mn
Bit rate mode : Variable
Bit rate : Unknown / 1 509 Kbps
Channel(s) : 8 channels / 6 channels
Channel positions : Front: L C R, Side: L R, Back: L R, LFE / Front: L C R, Side: L R, LFE
Sampling rate : 48.0 KHz
Bit depth : 24 bits
Compression mode : Lossless / Lossy
Title : -HD Ma | 7.1 | 48 kHz | 24 bit | 4760 kbps | Original
Language : English
Default : No
Forced : No

Audio #3
ID : 4
Format : AC-3
Format/Info : Audio Coding 3
Mode extension : CM (complete main)
Format settings, Endianness : Big
Codec ID : A_AC3
Duration : 2h 10mn
Bit rate mode : Constant
Bit rate : 224 Kbps
Channel(s) : 2 channels
Channel positions : Front: L R
Sampling rate : 48.0 KHz
Compression mode : Lossy
Stream size : 209 MiB (1%)
Title : Dolby Digital | 2.0 | 48 kHz | 16 bit | 224 kbps | Commentary [Jessie Henderson, John Vecchio, Paul Feig, Robert Yeoman, Walter Garcia]
Language : English
Default : No
Forced : No

Text #1
ID : 5
Format : UTF-8
Codec ID : S_TEXT/UTF8
Codec ID/Info : UTF-8 Plain Text
Title : Full [iTunes]
Language : Ukrainian
Default : No
Forced : No

Text #2
ID : 6
Format : UTF-8
Codec ID : S_TEXT/UTF8
Codec ID/Info : UTF-8 Plain Text
Title : Full [iTunes]
Language : English
Default : No
Forced : No

Menu
00:00:00.000 : en:1
00:03:36.000 : en:2
00:07:43.000 : en:3
00:10:06.000 : en:4
00:14:08.000 : en:5
00:15:39.000 : en:6
00:20:51.000 : en:7
00:23:22.000 : en:8
00:27:56.000 : en:9
00:31:07.000 : en:10
00:34:20.000 : en:11
00:39:26.000 : en:12
00:45:20.000 : en:13
00:47:37.000 : en:14
00:50:43.000 : en:15
00:55:21.000 : en:16
00:58:23.000 : en:17
01:03:29.000 : en:18
01:08:52.000 : en:19
01:10:53.000 : en:20
01:16:19.000 : en:21
01:22:25.000 : en:22
01:28:00.000 : en:23
01:33:03.000 : en:24
01:36:55.000 : en:25
01:40:10.000 : en:26
01:45:18.000 : en:27
01:50:36.000 : en:28
01:55:22.000 : en:29
01:59:31.000 : en:30
02:02:19.000 : en:31
02:04:54.000 : en:32
Скріншоти



Info


Джерело:


Золотий реліз (завантажене не впливає на рейтинг)
 Трекер:    Зареєстрований   

Завантажити / скачати фільм українською



відео для новачків



 Зареєстрований:   2015-09-17 18:03
 Розмір:   22.31 GB 
 Оцінка фільму:   9.2/10 (Голосів: 9)
   
ninenine 
Відео Гуртом - фільмокрай
Відео Гуртом - фільмокрай


З нами з: 23.10.09
Востаннє: 09.12.16
Повідомлень: 1147

2015-09-19 19:32  
Пів години нудно, далі вже більш цікавіше і смішніше, хороша драйвова музика, в цілому досить непогана пародія на всілякі фільми про шпигунів 7 з 10.
ultramuha 
Частий відвідувач


З нами з: 22.09.13
Востаннє: 04.12.16
Повідомлень: 26

2015-09-21 18:27  
В цілому можна охарактеризувати як чорноротий трешак, але якщо ви любитель чорного гумору, то сміливо дивіться. Але подбайте щоб поряд не було дітей! Як на мене це краща пародійна роль Стейтема! Місцями просто можна очманіти від поєднання дорогих і якісних зйомок, брутальних текстів і професійної гри акторів.
bot 
робот


З нами з: 30.09.07
Востаннє: 26.05.05
Повідомлень: 16038

2016-07-24 22:12  
Тему перенесено з Фільми в HD до форуму Фінальний смітник


Alex60

bot 
робот


З нами з: 30.09.07
Востаннє: 26.05.05
Повідомлень: 16038

2016-07-25 13:30  
Тему перенесено з Фінальний смітник до форуму Фільми в HD


igor911

Ваш часовий пояс: GMT + 2 Години

Нова тема   Відповісти