Завантажити та скачати торренти українською


Пік Данте / Dante's Peak (1997) 720p 2xUkr/Eng | Sub Eng

Нові коментарі

Нова тема   Відповісти
Автор Повідомлення
Anonymous 







2015-09-16 19:02  
Пік Данте / Dante's Peak (1997) 720p 2xUkr/Eng | Sub Eng



Українізований постер


повнорозмірне зображення відкриється по кліку (з натиснутим CTRL чи кліком середньою кнопкою мишки - у новій вкладці)


Жанр: катастрофа, бойовик, трилер, пригодницький
Країна: США



Кінокомпанія: Universal Pictures, Pacific Western
Режисер: Роджер Дональдсон / Roger Donaldson
Актори: Пірс Броснан / Pierce Brosnan, Лінда Гамільтон / Linda Hamilton, Джеймі Рене Сміт / Jamie Renée Smith, Джеремі Фоулі / Jeremy Foley, Елізабет Гофмен / Elizabeth Hoffman, Чарльз Гелеген / Charles Hallahan, Ґрант Геслов / Grant Heslov, Кірк Тратнер / Kirk Trutner, Арабелла Філд / Arabella Field, Ці Ма / Tzi Ma та інші

Сюжет:
Вчений-вулканолог Гаррі Далтон (Пірс Броснан), що втратив дружину під час виверження вулкана, вирушає у Пік Данте, маленьке містечко, розташоване на північно-західному узбережжі США, щоб перевірити там можливість виверження вулкану. Вчений одразу виявляє тривожні ознаки катастрофи, що насувається і загрожує обернутися фатальними наслідками для містечка. Ні його босс, ні місцева влада не хочуть вірити його попередженням про евакуацію, і лише мер міста Рейчел Вендо (Лінда Гамільтон) усвідомлює весь жах становища...


Рейтинг MPAA: PG-13 - дітям до 13 років перегляд не бажаний
Вікова категорія: 8+

Тривалість: 01:48:28
Якість: 720p
Відео:
кодек:
розмір кадру: 1280 x 542
бітрейт: 6861 кбіт/с [crf=16.8]

Аудіо # 1:
мова: українська
переклад: двоголосий закадровий - Студія 1+1
ролі озвучили: Андрій Твердак і Ольга Радчук
кодек: 2.0
бітрейт: 192 кбіт/с

Аудіо # 2:
мова: українська
переклад: багатоголосий закадровий - Студія "Мова"
ролі озвучили: Михайло Кришталь, Микола Говор, ще один чоловічий та один чи два жіночих голоси
кодек: 5.1
бітрейт: 384 кбіт/с

Аудіо # 3:
мова: англійська
переклад: оригінал
кодек: 5.1
бітрейт: 1509 кбіт/с

Субтитри:
мова: англійська
тип: програмні (м'які)
формат: *.srt

Збережено оригінальні розділи, як на Blu-ray.
MediaInfo
Код:
General
Unique ID                   : 207592636845068029673098666857867385439 (0x9C2CE336B3799861BEE475E0D84E1A5F)
Complete name               : Dante's Peak (1997) [2xUkr,Eng sub.Eng] 720p [Hurtom & HDClub].mkv
Format                      : Matroska
Format version              : Version 4 / Version 2
File size                   : 6.92 GiB
Duration                    : 1h 48mn
Overall bit rate            : 9 128 Kbps
Movie name                  : Пік Данте / Dante's Peak (1997) [2xUkr,Eng sub.Eng] 1080p [Hurtom & HDClub]
Encoded date                : UTC 2015-09-16 12:51:20
Writing application         : mkvmerge v8.3.0 ('Over the Horizon') 64bit
Writing library             : libebml v1.3.1 + libmatroska v1.4.2
Attachements                : cover.jpg
DURATION                    : 01:48:28.032000000
NUMBER_OF_FRAMES            : 203376
NUMBER_OF_BYTES             : 156192768
_STATISTICS_WRITING_APP     : mkvmerge v8.3.0 ('Over the Horizon') 64bit
_STATISTICS_WRITING_DATE_UT : 2015-09-16 12:51:20
_STATISTICS_TAGS            : BPS DURATION NUMBER_OF_FRAMES NUMBER_OF_BYTES

Video
ID                          : 1
Format                      : AVC
Format/Info                 : Advanced Video Codec
Format profile              : [email protected]
Format settings, CABAC      : Yes
Format settings, ReFrames   : 11 frames
Codec ID                    : V_MPEG4/ISO/AVC
Duration                    : 1h 48mn
Bit rate                    : 6 861 Kbps
Width                       : 1 280 pixels
Height                      : 542 pixels
Display aspect ratio        : 2.35:1
Frame rate mode             : Constant
Frame rate                  : 23.976 fps
Color space                 : YUV
Chroma subsampling          : 4:2:0
Bit depth                   : 8 bits
Scan type                   : Progressive
Bits/(Pixel*Frame)          : 0.412
Stream size                 : 5.20 GiB (75%)
Title                       : Пік Данте / Dante's Peak (1997) 720p [HDClub-jarga]
Writing library             : core 104 r1698 c41b8f0
Encoding settings           : cabac=1 / ref=11 / deblock=1:-3:-3 / analyse=0x3:0x113 / me=umh / subme=10 / psy=1 / psy_rd=1.00:0.10 / mixed_ref=1 / me_range=32 / chroma_me=1 / trellis=2 / 8x8dct=1 / cqm=0 / deadzone=21,11 / fast_pskip=0 / chroma_qp_offset=-3 / threads=3 / sliced_threads=0 / nr=0 / decimate=1 / interlaced=0 / constrained_intra=0 / bframes=14 / b_pyramid=2 / b_adapt=2 / b_bias=0 / direct=1 / weightb=1 / open_gop=0 / weightp=2 / keyint=250 / keyint_min=23 / scenecut=40 / intra_refresh=0 / rc_lookahead=40 / rc=crf / mbtree=0 / crf=16.8 / qcomp=0.60 / qpmin=10 / qpmax=51 / qpstep=4 / vbv_maxrate=50000 / vbv_bufsize=62500 / crf_max=0.0 / ip_ratio=1.40 / pb_ratio=1.30 / aq=1:0.90 / nal_hrd=none
Language                    : English
Default                     : Yes
Forced                      : No

Audio #1
ID                          : 2
Format                      : AC-3
Format/Info                 : Audio Coding 3
Mode extension              : CM (complete main)
Format settings, Endianness : Big
Codec ID                    : A_AC3
Duration                    : 1h 48mn
Bit rate mode               : Constant
Bit rate                    : 192 Kbps
Channel(s)                  : 2 channels
Channel positions           : Front: L R
Sampling rate               : 48.0 KHz
Compression mode            : Lossy
Stream size                 : 149 MiB (2%)
Title                       : DVO [1+1] 2.0 192 kbps [Hurtom-omm,servus12]
Language                    : Ukrainian
Default                     : Yes
Forced                      : No

Audio #2
ID                          : 3
Format                      : AC-3
Format/Info                 : Audio Coding 3
Mode extension              : CM (complete main)
Format settings, Endianness : Big
Codec ID                    : A_AC3
Duration                    : 1h 48mn
Bit rate mode               : Constant
Bit rate                    : 384 Kbps
Channel(s)                  : 6 channels
Channel positions           : Front: L C R, Side: L R, LFE
Sampling rate               : 48.0 KHz
Compression mode            : Lossy
Stream size                 : 298 MiB (4%)
Title                       : MVO [Mova-Ukraina] 5.1 384 kbps [Hurtom-_oles,Merdiff]
Language                    : Ukrainian
Default                     : No
Forced                      : No

Audio #3
ID                          : 4
Format                      :
Format/Info                 : Digital Theater Systems
Mode                        : 16
Format settings, Endianness : Big
Codec ID                    : A_DTS
Duration                    : 1h 48mn
Bit rate mode               : Constant
Bit rate                    : 1 509 Kbps
Channel(s)                  : 6 channels
Channel positions           : Front: L C R, Side: L R, LFE
Sampling rate               : 48.0 KHz
Bit depth                   : 24 bits
Compression mode            : Lossy
Stream size                 : 1.14 GiB (17%)
Title                       : Original 5.1 1509 kbps
Language                    : English
Default                     : No
Forced                      : No

Text
ID                          : 5
Format                      : UTF-8
Codec ID                    : S_TEXT/UTF8
Codec ID/Info               : UTF-8 Plain Text
Language                    : English
Default                     : No
Forced                      : No

Menu
00:00:00.000                : :Chapter 1
00:03:29.709                : :Chapter 2
00:05:12.312                : :Chapter 3
00:06:47.949                : :Chapter 4
00:10:38.679                : :Chapter 5
00:12:00.594                : :Chapter 6
00:14:31.954                : :Chapter 7
00:18:47.668                : :Chapter 8
00:20:35.192                : :Chapter 9
00:25:56.763                : :Chapter 10
00:27:31.608                : :Chapter 11
00:29:12.542                : :Chapter 12
00:30:54.477                : :Chapter 13
00:34:41.829                : :Chapter 14
00:36:37.236                : :Chapter 15
00:38:40.526                : :Chapter 16
00:44:36.090                : :Chapter 17
00:46:57.231                : :Chapter 18
00:50:48.045                : :Chapter 19
00:52:10.961                : :Chapter 20
00:54:06.993                : :Chapter 21
00:55:20.317                : :Chapter 22
01:01:26.224                : :Chapter 23
01:04:33.452                : :Chapter 24
01:06:03.250                : :Chapter 25
01:08:52.545                : :Chapter 26
01:11:32.705                : :Chapter 27
01:14:56.325                : :Chapter 28
01:17:03.577                : :Chapter 29
01:18:47.431                : :Chapter 30
01:20:56.977                : :Chapter 31
01:23:03.395                : :Chapter 32
01:27:34.290                : :Chapter 33
01:29:38.122                : :Chapter 34
01:32:31.128                : :Chapter 35
01:35:49.493                : :Chapter 36
01:38:12.386                : :Chapter 37
01:40:46.040                : :Chapter 38




Джерела та подяки: &
ріп відео, оригінальні звук та субтитри - jarga (HDClub); українські доріжки : 1) omm - зведення, servus12 - запис з ТБ, 2) _oles - зведення, Merdiff - запис з ТБ; українізований постер - abodnya; фільмографії акторів та інформація про озвучення - Neo777, Віктор(всі - Гуртом).

Особиста оцінка: 8 - мені сподобалося


ЗАЛИШАЙТЕСЬ ЯКОМОГА ДОВШЕ НА РОЗДАЧІ!

СКАЧАВ САМ - ДАЙ СКАЧАТИ ІНШИМ


Срібний реліз (на рейтинг впливає 50% завантаженого)
 Трекер:    Зареєстрований   

Завантажити / скачати фільм українською



відео для новачків



 Зареєстрований:   2015-09-16 19:02
 Розмір:   6.92 GB 
 Оцінка фільму:   3.1/10 (Голосів: 13)
   
Інші релізи
   Пік Данте / Dante's Peak (1997) 1080p Ukr/Eng | Sub Eng igor911  1 / 0   12.18 GB   2015-09-16 18:56 
   Пік Данте / Dante's Peak (1997) Ukr/Eng | Sub Eng omm  5 / 0   2.18 GB   2015-08-27 21:28 
   Пік Данте / Dante's Peak (1997) Ukr/Eng _oles  1 / 0   2.19 GB   2009-09-07 08:31 
Maters 
VIP


З нами з: 27.03.12
Востаннє: 05.12.16
Повідомлень: 1159

2015-09-16 20:40  
Пам'ятаю, колись цей фільм мені дуже подобався, цікаво, чого то рейтинг такий малий...
Anonymous 







2015-09-16 20:42  
Maters, мене теж здивував такий низький рейтинг.
EvGaS 
Відео Гуртом - підтримка та поширення
Відео Гуртом - підтримка та поширення


З нами з: 27.02.12
Востаннє: 06.12.16
Повідомлень: 2117

2015-09-17 12:07  
Maters, igor911 - бо ніхто не любить розумні реалістичні фільми. Дійсність нудна. =)

Я от зараз знищу уяву багатьох про фільм Термінатор-2, й скажу, що колись обливався рідким азотом на збіговиськах оверклокерів. )))

Ваш часовий пояс: GMT + 2 Години

Нова тема   Відповісти