Завантажити та скачати торренти українською


Пік Данте / Dante's Peak (1997) 1080p Ukr/Eng | Sub Eng

Нові коментарі

Нова тема   Відповісти
Автор Повідомлення
Anonymous 







2015-09-16 18:56  
Пік Данте / Dante's Peak (1997) 1080p Ukr/Eng | Sub Eng



Українізований постер


повнорозмірне зображення відкриється по кліку (з натиснутим CTRL чи кліком середньою кнопкою мишки - у новій вкладці)


Жанр: катастрофа, бойовик, трилер, пригодницький
Країна: США



Кінокомпанія: Universal Pictures, Pacific Western
Режисер: Роджер Дональдсон / Roger Donaldson
Актори: Пірс Броснан / Pierce Brosnan, Лінда Гамільтон / Linda Hamilton, Джеймі Рене Сміт / Jamie Renée Smith, Джеремі Фоулі / Jeremy Foley, Елізабет Гофмен / Elizabeth Hoffman, Чарльз Гелеген / Charles Hallahan, Ґрант Геслов / Grant Heslov, Кірк Тратнер / Kirk Trutner, Арабелла Філд / Arabella Field, Ці Ма / Tzi Ma та інші

Сюжет:
Вчений-вулканолог Гаррі Далтон (Пірс Броснан), що втратив дружину під час виверження вулкана, вирушає у Пік Данте, маленьке містечко, розташоване на північно-західному узбережжі США, щоб перевірити там можливість виверження вулкану. Вчений одразу виявляє тривожні ознаки катастрофи, що насувається і загрожує обернутися фатальними наслідками для містечка. Ні його босс, ні місцева влада не хочуть вірити його попередженням про евакуацію, і лише мер міста Рейчел Вендо (Лінда Гамільтон) усвідомлює весь жах становища...


Рейтинг MPAA: PG-13 - дітям до 13 років перегляд не бажаний
Вікова категорія: 8+

Тривалість: 01:48:28
Якість: 1080p [SbR]
Відео:
кодек:
розмір кадру: 1920 x 814
бітрейт: 14000 кбіт/с

Аудіо # 1:
мова: українська
переклад: двоголосий закадровий - Студія 1+1
ролі озвучили: Андрій Твердак і Ольга Радчук
кодек: 2.0
бітрейт: 192 кбіт/с

Аудіо # 2:
мова: українська
переклад: багатоголосий закадровий - Студія "Мова"
ролі озвучили: Михайло Кришталь, Микола Говор, ще один чоловічий та один чи два жіночих голоси
кодек: 5.1
бітрейт: 384 кбіт/с

Аудіо # 3:
мова: англійська
переклад: оригінал
кодек: 5.1
бітрейт: 1509 кбіт/с

Субтитри:
мова: англійська
тип: програмні (м'які)
формат: *.srt

Збережено оригінальні розділи, як на Blu-ray.
MediaInfo та log
Код:
General
Unique ID                   : 215446527044918829935750903059827111914 (0xA2157DE59F3E66B197BC9FF1FE1BB7EA)
Complete name               : Dante's Peak (1997) [2xUkr,Eng sub.Eng] 1080p [Hurtom & HDClub].mkv
Format                      : Matroska
Format version              : Version 4 / Version 2
File size                   : 12.2 GiB
Duration                    : 1h 48mn
Overall bit rate            : 16.1 Mbps
Movie name                  : Пік Данте / Dante's Peak (1997) [2xUkr,Eng sub.Eng] 1080p [Hurtom & HDClub]
Encoded date                : UTC 2015-09-16 12:23:11
Writing application         : mkvmerge v8.3.0 ('Over the Horizon') 64bit
Writing library             : libebml v1.3.1 + libmatroska v1.4.2
Attachements                : cover.jpg / xlog.txt
DURATION                    : 01:48:28.032000000
NUMBER_OF_FRAMES            : 203376
NUMBER_OF_BYTES             : 156192768
_STATISTICS_WRITING_APP     : mkvmerge v8.3.0 ('Over the Horizon') 64bit
_STATISTICS_WRITING_DATE_UT : 2015-09-16 12:23:11
_STATISTICS_TAGS            : BPS DURATION NUMBER_OF_FRAMES NUMBER_OF_BYTES

Video
ID                          : 1
Format                      : AVC
Format/Info                 : Advanced Video Codec
Format profile              : [email protected]
Format settings, CABAC      : Yes
Format settings, ReFrames   : 5 frames
Codec ID                    : V_MPEG4/ISO/AVC
Duration                    : 1h 48mn
Bit rate                    : 14.0 Mbps
Width                       : 1 920 pixels
Height                      : 814 pixels
Display aspect ratio        : 2.35:1
Frame rate mode             : Constant
Frame rate                  : 23.976 fps
Color space                 : YUV
Chroma subsampling          : 4:2:0
Bit depth                   : 8 bits
Scan type                   : Progressive
Bits/(Pixel*Frame)          : 0.374
Stream size                 : 10.4 GiB (85%)
Title                       : Пік Данте / Dante's Peak (1997) 1080p [HDClub-SbR]
Writing library             : core 144 r2525kMod 40bb568
Encoding settings           : cabac=1 / ref=5 / deblock=1:-3:-3 / analyse=0x3:0x133 / me=umh / subme=11 / psy=1 / fade_compensate=0.00 / psy_rd=1.10:0.00 / mixed_ref=1 / me_range=32 / chroma_me=1 / trellis=2 / 8x8dct=1 / cqm=0 / deadzone=21,11 / fast_pskip=0 / chroma_qp_offset=-2 / threads=12 / lookahead_threads=2 / sliced_threads=0 / nr=0 / decimate=1 / interlaced=0 / bluray_compat=0 / constrained_intra=0 / fgo=0 / bframes=8 / b_pyramid=2 / b_adapt=2 / b_bias=0 / direct=3 / weightb=1 / open_gop=0 / weightp=2 / keyint=250 / keyint_min=23 / scenecut=40 / intra_refresh=0 / rc_lookahead=60 / rc=2pass / mbtree=0 / bitrate=14000 / ratetol=1.0 / qcomp=0.65 / qpmin=0 / qpmax=69 / qpstep=4 / cplxblur=20.0 / qblur=0.5 / vbv_maxrate=62500 / vbv_bufsize=78125 / nal_hrd=none / filler=0 / ip_ratio=1.40 / pb_ratio=1.30 / aq=1:0.70
Language                    : English
Default                     : Yes
Forced                      : No
Color range                 : Limited
Color primaries             : BT.709
Transfer characteristics    : BT.709
Matrix coefficients         : BT.709

Audio #1
ID                          : 2
Format                      : AC-3
Format/Info                 : Audio Coding 3
Mode extension              : CM (complete main)
Format settings, Endianness : Big
Codec ID                    : A_AC3
Duration                    : 1h 48mn
Bit rate mode               : Constant
Bit rate                    : 192 Kbps
Channel(s)                  : 2 channels
Channel positions           : Front: L R
Sampling rate               : 48.0 KHz
Compression mode            : Lossy
Stream size                 : 149 MiB (1%)
Title                       : DVO [1+1] 2.0 192 kbps [Hurtom-omm,servus12]
Language                    : Ukrainian
Default                     : Yes
Forced                      : No

Audio #2
ID                          : 3
Format                      : AC-3
Format/Info                 : Audio Coding 3
Mode extension              : CM (complete main)
Format settings, Endianness : Big
Codec ID                    : A_AC3
Duration                    : 1h 48mn
Bit rate mode               : Constant
Bit rate                    : 384 Kbps
Channel(s)                  : 6 channels
Channel positions           : Front: L C R, Side: L R, LFE
Sampling rate               : 48.0 KHz
Compression mode            : Lossy
Stream size                 : 298 MiB (2%)
Title                       : MVO [Mova-Ukraina] 5.1 384 kbps [Hurtom-_oles,Merdiff]
Language                    : Ukrainian
Default                     : No
Forced                      : No

Audio #3
ID                          : 4
Format                      :
Format/Info                 : Digital Theater Systems
Mode                        : 16
Format settings, Endianness : Big
Codec ID                    : A_DTS
Duration                    : 1h 48mn
Bit rate mode               : Constant
Bit rate                    : 1 509 Kbps
Channel(s)                  : 6 channels
Channel positions           : Front: L C R, Side: L R, LFE
Sampling rate               : 48.0 KHz
Bit depth                   : 24 bits
Compression mode            : Lossy
Stream size                 : 1.14 GiB (9%)
Title                       : Original 5.1 1509 kbps
Language                    : English
Default                     : No
Forced                      : No

Text
ID                          : 5
Format                      : UTF-8
Codec ID                    : S_TEXT/UTF8
Codec ID/Info               : UTF-8 Plain Text
Language                    : English
Default                     : No
Forced                      : No

Menu
00:00:00.000                : en:Main Titles
00:03:29.709                : en:Too Close to the Show
00:05:12.312                : en:Four Years Later
00:06:47.949                : en:The Second-Best Place to Live
00:10:38.679                : en:A Hot Dip
00:12:00.594                : en:The Mayor and Her Kids
00:14:31.954                : en:There's Nothing Going on....
00:18:47.668                : en:Dead in the Water
00:20:35.192                : en:The Council's Concern
00:25:56.763                : en:This Town's In Trouble...
00:27:31.608                : en:The Mayor's Invitation
00:29:12.542                : en:She's Quiet...
00:30:54.477                : en:Harry's Game
00:34:41.829                : en:The Best-Looking Mayor I've Ever Seen
00:36:37.236                : en:Spider-Legs
00:38:40.526                : en:The Trouble with Terry
00:44:36.090                : en:My Recipe for Disaster
00:46:57.231                : en:The Last Night
00:50:48.045                : en:Troubled Waters
00:52:10.961                : en:The Ticking Bomb
00:54:06.993                : en:Grandma Wants to Stay
00:55:20.317                : en:The Panic
01:01:26.224                : en:The Hard Way to Grandma's
01:04:33.452                : en:The Pilot's Error
01:06:03.250                : en:Running Out of Time
01:08:52.545                : en:God's Big Show
01:11:32.705                : en:Don't Touch the Water!
01:14:56.325                : en:Grandma's Choice
01:17:03.577                : en:The Last Mile
01:18:47.431                : en:Meltdown
01:20:56.977                : en:The Bridge
01:23:03.395                : en:The Burning Fields
01:27:34.290                : en:The Killer Cloud
01:29:38.122                : en:Graham's Hideout
01:32:31.128                : en:The Big Squeeze
01:35:49.493                : en:Thank You, Nasa!
01:38:12.386                : en:Out of the Ashes
01:40:46.040                : en:End Titles


Код:
frame I:930   Avg QP:14.99  size:180382
frame P:45590 Avg QP:16.32  size:103281
frame B:109518 Avg QP:18.43  size: 59391
Ріп<----------> Оригінал








Джерела та подяки: &
ріп відео, оригінальні звук та субтитри - SbR (HDbits), Skazhutin (HDClub); українські доріжки : 1) omm - зведення, servus12 - запис з ТБ, 2) _oles - зведення, Merdiff - запис з ТБ; українізований постер - abodnya; фільмографії акторів та інформація про озвучення - Neo777, Віктор(всі - Гуртом).

Особиста оцінка: 8 - мені сподобалося


ЗАЛИШАЙТЕСЬ ЯКОМОГА ДОВШЕ НА РОЗДАЧІ!

СКАЧАВ САМ - ДАЙ СКАЧАТИ ІНШИМ


Срібний реліз (на рейтинг впливає 50% завантаженого)
 Трекер:    Зареєстрований   

Завантажити / скачати фільм українською



відео для новачків



 Зареєстрований:   2015-09-16 18:56
 Розмір:   12.18 GB 
 Оцінка фільму:   2.5/10 (Голосів: 12)
   
Інші релізи
   Пік Данте / Dante's Peak (1997) 720p 2xUkr/Eng | Sub Eng igor911  2 / 0   6.92 GB   2015-09-16 19:02 
   Пік Данте / Dante's Peak (1997) Ukr/Eng | Sub Eng omm  7 / 0   2.18 GB   2015-08-27 21:28 
   Пік Данте / Dante's Peak (1997) Ukr/Eng _oles  1 / 0   2.19 GB   2009-09-07 08:31 
Ваш часовий пояс: GMT + 2 Години

Нова тема   Відповісти