Завантажити та скачати торренти українською


Absinthe - Андрухович & Karbido (2011) 720p 50fps | Avantgarde Jazz, Post-rock

Нові коментарі

Нова тема   Відповісти
Останній раз роздавалося maxx-1980 (2016-12-05)
Автор Повідомлення
sergiyko.9 
Забанено
Забанено


З нами з: 17.07.14
Востаннє: 01.01.16
Повідомлень: 201

2015-09-16 17:39  
Absinthe - Андрухович & Karbido (2011) 720p 50fps | Avantgarde Jazz, Post-rock

Absinthe - Андрухович & Karbido (2011) 720p 50fps | Avantgarde Jazz, Post-rock


Стиль: Avantgarde Jazz Rock
Країна, місто: Україна

Виконавці: Юрій Андрухович та гурт Karbido

Опис:
Відеозапис концертної багатокамерної зйомки для DVD реліза медіа-спектакля "Абсент / Absynt / Absinthe"
Третя, заключна частина трилогії "Самогон / Цинамон / Абсент" українського поета та письменника Юрія Андруховича (текст, вокал) та польскої групи "Karbido"(авторів музичного проекту "Stolik / The Table", 2009). Створено за мотивами роману "Перверзія" Юрія Андруховича.
В спектаклі поєднані музика, вокал та відео-арт.

Запис з живих концертів:
Київська національна консерваторія, 18 грудня 2011 року та Івано-Франківська обласна філармонія, 29 травня 2012 року.
Треклист:

01 Вступ
02 Orfeus in Venice
03 Names of Stanislaus Perfecki / 40 імен Станіслава Перфецького
04 Winter in Bavaria / Зима в Баварії
05 Soundtrack movie - excerpt I / Звуковий фрагмент з фільму — І
06 O, Italy... / За що, Італіє...
07 Waltz of the necromancers (March of tne Rosicrusians) / Вальс чорнокнижників (Марш Розенкройцерів)
08 Witout you / Стас Перфецький тужить без Ади Цитрини
09 Sniper / Колискова Перфецького (Снайпер)
10 Soundtrack movie - excerpt II / Звуковий фрагмент з фільму — ІІ
11 I won't go to the forest / Не піду я до леса
12 Ada / (Багатьма словами різних мов)
13 J.P.'s reggae
14 Soundtrack movie - excerpt III / Звуковий фрагмент з фільму — ІІ
15 Witout you - 2
16 Epilogue - Perfecki's Farewell / Епілог — прощання Перфецького
17 Soundtrack movie - excerpt IV / Звуковий фрагмент з фільму — ІV
18 Just in between / (З новознайдених записів Стаса Перфецького)
Тривалість:01:19:48
Якість: 720р 50fps

Відео:
кодек:
розмір кадру: 1280 х 720
бітрейт: 4272 кб/с

Аудіо:
мова: українська
кодек: 2.0
бітрейт: 256 кб/с

Скріншоти:
MediaInfo
General
Unique ID : 186641376660492757795814556971819813757 (0x8C69D2558166C31E855488B3B94F4B7D)
Complete name : E:\Torrents\VideoMusic\Absinthe.2011..720p.Ukr.mkv
Format : Matroska
Format version : Version 4 / Version 2
File size : 2.58 GiB
Duration : 1h 19mn
Overall bit rate : 4 620 Kbps
Movie name : Absinthe.2011..720p.Ukr
Encoded date : UTC 2015-09-18 18:45:26
Writing application : mkvmerge v8.2.0 ('World of Adventure') 32bit
Writing library : libebml v1.3.1 + libmatroska v1.4.2
DURATION : 01:19:48.096000000
NUMBER_OF_FRAMES : 149628
NUMBER_OF_BYTES : 153219072
_STATISTICS_WRITING_APP : mkvmerge v8.2.0 ('World of Adventure') 32bit
_STATISTICS_WRITING_DATE_UTC : 2015-09-18 18:45:26
_STATISTICS_TAGS : BPS DURATION NUMBER_OF_FRAMES NUMBER_OF_BYTES

Video
ID : 1
Format : AVC
Format/Info : Advanced Video Codec
Format profile : [email protected]
Format settings, CABAC : Yes
Format settings, ReFrames : 8 frames
Codec ID : V_MPEG4/ISO/AVC
Duration : 1h 19mn
Bit rate : 4 272 Kbps
Width : 1 280 pixels
Height : 720 pixels
Display aspect ratio : 16:9
Frame rate mode : Constant
Frame rate : 50.000 fps
Color space : YUV
Chroma subsampling : 4:2:0
Bit depth : 8 bits
Scan type : Progressive
Bits/(Pixel*Frame) : 0.093
Stream size : 2.38 GiB (92%)
Title : Absinthe.2011..720p.Ukr
Writing library : core 129 r2230 1cffe9f
Encoding settings : cabac=1 / ref=8 / deblock=1:-2:-2 / analyse=0x3:0x133 / me=umh / subme=9 / psy=1 / psy_rd=1.00:0.00 / mixed_ref=1 / me_range=16 / chroma_me=1 / trellis=2 / 8x8dct=1 / cqm=0 / deadzone=21,11 / fast_pskip=1 / chroma_qp_offset=-2 / threads=4 / lookahead_threads=1 / sliced_threads=0 / nr=0 / decimate=1 / interlaced=0 / bluray_compat=0 / constrained_intra=0 / bframes=3 / b_pyramid=2 / b_adapt=2 / b_bias=0 / direct=3 / weightb=1 / open_gop=1 / weightp=2 / keyint=500 / keyint_min=50 / scenecut=40 / intra_refresh=0 / rc_lookahead=60 / rc=crf / mbtree=1 / crf=19.0 / qcomp=0.60 / qpmin=0 / qpmax=54 / qpstep=9 / ip_ratio=1.40 / aq=1:1.00
Language : Ukrainian
Default : Yes
Forced : No
DURATION : 01:19:48.080000000
NUMBER_OF_FRAMES : 239404
NUMBER_OF_BYTES : 2609746092
_STATISTICS_WRITING_APP : mkvmerge v8.2.0 ('World of Adventure') 32bit
_STATISTICS_WRITING_DATE_UTC : 2015-09-18 18:45:26
_STATISTICS_TAGS : BPS DURATION NUMBER_OF_FRAMES NUMBER_OF_BYTES

Audio
ID : 2
Format : AC-3
Format/Info : Audio Coding 3
Mode extension : CM (complete main)
Format settings, Endianness : Big
Codec ID : A_AC3
Duration : 1h 19mn
Bit rate mode : Constant
Bit rate : 256 Kbps
Channel(s) : 2 channels
Channel positions : Front: L R
Sampling rate : 48.0 KHz
Bit depth : 16 bits
Compression mode : Lossy
Stream size : 146 MiB (6%)
Title : Ukrainian Dolby 2.0ch 256kbps
Language : Ukrainian
Default : Yes
Forced : No

Menu
00:00:00.000 : uk:01. Вступ
00:04:37.560 : uk:02. Orfeus in Venice
00:13:21.060 : uk:03. 40 імен Станіслава Перфецького
00:17:26.330 : uk:04. Зима в Баварії
00:23:55.300 : uk:05. Звуковий фрагмент з фільму — І
00:25:32.330 : uk:06. За що, Італіє...
00:29:46.490 : uk:07. Вальс чорнокнижників (Марш Розенкройцерів)
00:36:59.500 : uk:08. Стас Перфецький тужить без Ади Цитрини
00:41:12.280 : uk:09. Колискова Перфецького (Снайпер)
00:44:48.620 : uk:10. Звуковий фрагмент з фільму — ІІ
00:47:14.110 : uk:11. Не піду я до леса
00:49:10.740 : uk:12. Ada / (Багатьма словами різних мов)
00:55:30.700 : uk:13. J.P.'s reggae
00:59:59.620 : uk:14. Звуковий фрагмент з фільму — ІІI
01:01:20.290 : uk:15. Witout you - 2
01:08:28.430 : uk:16. Епілог — прощання Перфецького
01:14:06.660 : uk:17. Звуковий фрагмент з фільму — ІV
01:14:59.660 : uk:18. (З новознайдених записів Стаса Перфецького)
У відеофайлі прописані розділи потреково.


Золотий реліз (завантажене не впливає на рейтинг)
 Трекер:    Зареєстрований   

Завантажити / скачати кліп українською



відео для новачків



 Зареєстрований:   2015-09-18 20:53
 Розмір:   2.58 GB 
 Оцінка кліпу:   10/10 (Голосів: 2)
   
Ваш часовий пояс: GMT + 2 Години

Нова тема   Відповісти