Завантажити та скачати торренти українською


Зоряні Війни: Повстанці / Star Wars Rebels (Сезон 1) (2014) UKR/ENG

Нові коментарі

Нова тема   Відповісти
Автор Повідомлення
spalabutyi 
Свій


З нами з: 17.09.09
Востаннє: 03.11.16
Повідомлень: 140

2015-09-16 06:25  
Зоряні Війни: Повстанці / Star Wars Rebels (Сезон 1) (2014) UKR/ENG


Жанр: фантастика, пригоди, анімація
Країна: США
Рік: 2014

Кіностудія / кінокомпанія: Lucasfilm, Lucasfilm Animation, Disney Television Animation, Disney–ABC Domestic Television
Режисер: Стюарт Лі, Стівен Дж. Лі, Дейв Філоні
Ролі озвучують:
Гера Сендулла - Vanessa Marshall / Юлія Шаповал
Кенан Джарус - Freddie Prinze Jr. / Роман Чорний
Зеб Ореліус - Steve Blum / Сергій Солопай
Езра Бріджер - Taylor Gray / Михайло Федорченко
Сабіна Врен - Tiya Sircar / Антоніна Хажняк
Агент Каллус - David Oyelowo / Володимир Паляниця
Сікатро Візаґо - Keith Szarabajka / Михайло Кукуюк
Дарт Вейдер - James Earl Jones / Кирило Нікітенко
Ареско - Дмитро Вікулов
Допитуавач - Андрій Мостренко
Старий - Володимир Жогло



Сюжет:
Для далекої-далекої Галактики настали темні часи. Поглинаючи один світ за іншим, Галактична Імперія продовжує нарощувати свою міць. Імперські війська, які окупували віддалену планету, встановлюють на ній деспотичний режим. Але знаходяться сміливці, готові протистояти силам Імперії. Це екіпаж космічного корабля «Привид». Команді повстанців належить зіткнутися лицем до лиця з новими грізними супротивниками і стати героями, здатними підняти повстання.
Дія серіалу розгортається за п'ять років до оригінальної трилогії «Зоряних війн», в період між фільмами «Зоряні війни. Епізод III: Помста ситхів» і «Зоряні війни. Епізод IV: Нова надія».




Відео :
Якість:
кодек:
розмір кадру: 720 × 400
бітрейт: ~ 1342 Kbps

Аудіо 1:
мова:українська
переклад: дубляж
кодек: 2.0
бітрейт: 192 кб/с

Аудіо 2:
мова:англійська
кодек: MP3
бітрейт: 128 кб/с

Тривалість серії: 14 серій по 21…22 хв.
Перелік серій

1x01 - Spark of Rebellion / Іскри повстання
1x02 - Droids in Distress / Дроїди в біді
1x03 - Fighter Flight / Політ винищувача
1x04 - Rise of the Old Masters / Воскресіння старих майстрів
1x05 - Breaking Ranks / Порушуючи порядок
1x06 - Out of Darkness / З темряви
1x07 - Empire Day / День Імперії
1x08 - Gathering Forces / Сили прибувають
1x09 - Path of the Jedi / Шлях джедая
1x10 - Idiot's Array / Розклад ідіота
1x11 - Vision of Hope / Міраж надії
1x12 - Call to Action / Заклик до дії
1x13 - Rebel Resolve / Рішення повстанців
1x14 - Fire Across the Galaxy / Вогонь поширюється

MediaInfo

Код:

General
Complete name               : \Star.Wars.Rebels\Season1\star.wars.rebels.s01e07..ukr.eng.avi
Format                      : AVI
Format/Info                 : Audio Video Interleave
File size                   : 260 MiB
Duration                    : 21mn 12s
Overall bit rate            : 1 714 Kbps
Movie name                  : Star Wars Rebels. 1x07 Empire Day
Writing application         : VirtualDubMod 1.5.10.2 (build 2540/release)
Writing library             : VirtualDubMod build 2540/release

Video
ID                          : 0
Format                      : MPEG-4 Visual
Format profile              : Advanced [email protected]
Format settings, BVOP       : 1
Format settings, QPel       : No
Format settings, GMC        : No warppoints
Format settings, Matrix     : Default (MPEG)
Codec ID                    :
Codec ID/Hint               :
Duration                    : 21mn 12s
Bit rate                    : 1 379 Kbps
Width                       : 720 pixels
Height                      : 400 pixels
Display aspect ratio        : 16:9
Frame rate                  : 25.000 fps
Color space                 : YUV
Chroma subsampling          : 4:2:0
Bit depth                   : 8 bits
Scan type                   : Progressive
Compression mode            : Lossy
Bits/(Pixel*Frame)          : 0.192
Stream size                 : 209 MiB (80%)
Writing library             : 73

Audio #1
ID                          : 1
Format                      : AC-3
Format/Info                 : Audio Coding 3
Mode extension              : CM (complete main)
Format settings, Endianness : Big
Codec ID                    : 2000
Duration                    : 21mn 12s
Bit rate mode               : Constant
Bit rate                    : 192 Kbps
Channel(s)                  : 2 channels
Channel positions           : Front: L R
Sampling rate               : 48.0 KHz
Compression mode            : Lossy
Stream size                 : 29.1 MiB (11%)
Alignment                   : Split accross interleaves
Interleave, duration        : 40 ms (1.00 video frame)
Interleave, preload duratio : 500 ms
Title                       : DUB LeDoyen Studio [UKR]

Audio #2
ID                          : 2
Format                      : MPEG Audio
Format version              : Version 1
Format profile              : Layer 3
Codec ID                    : 55
Codec ID/Hint               : MP3
Duration                    : 21mn 12s
Bit rate mode               : Constant
Bit rate                    : 128 Kbps
Channel(s)                  : 2 channels
Sampling rate               : 48.0 KHz
Compression mode            : Lossy
Stream size                 : 19.4 MiB (7%)
Alignment                   : Aligned on interleaves
Interleave, duration        : 40 ms (1.00 video frame)
Interleave, preload duratio : 504 ms
Title                       : Original [ENG]
Writing library             : LAME3.99r
Encoding settings           : -m s -V 4 -q 0 -lowpass 17 -b 128
Відбитки







Інші роздачі:
Зоряні Війни: Повстанці / Star Wars Rebels (Сезон 1) (2014) 720p Ukr/Eng | sub Eng
Зоряні Війни: Повстанці / Star Wars Rebels (Сезон 2) (2015) AVC
Зоряні Війни: Повстанці / Star Wars Rebels (Сезон 2) (2015) 1080p Ukr/Eng | sub Eng


 Трекер:    Зареєстрований   

Завантажити / скачати мультфільм українською



відео для новачків



 Зареєстрований:   2015-09-16 06:25
 Розмір:   3.81 GB 
 Оцінка мультсеріалу:   9.9/10 (Голосів: 17)
   
merlin_zaraza 
Свій


З нами з: 20.06.09
Востаннє: 09.12.16
Повідомлень: 124

2015-09-16 10:05  
додайте зразок для оцінки звуку будь ласка
zgryvus 
Відео Гуртом - дизайнер
Відео Гуртом - дизайнер


З нами з: 21.08.09
Востаннє: 09.12.16
Повідомлень: 1494

2015-09-16 11:48  
merlin_zaraza, якщо озвучували le Doyen, то за якість можна не сумніватися, тим більше при 2.0 192 Кб/с
merlin_zaraza 
Свій


З нами з: 20.06.09
Востаннє: 09.12.16
Повідомлень: 124

2015-09-16 11:59  
zgryvus
Дякую, чекаю на HD

franik4ever 
VIP


З нами з: 08.10.07
Востаннє: 07.12.16
Повідомлень: 546

2015-09-20 15:00  
Мені значно менше сподобалось за "Війни клонів". Видно що Дісней приклався((( якось так по-дитячому все стало...
shangran 
Свій


З нами з: 04.10.14
Востаннє: 25.11.16
Повідомлень: 99

2015-10-20 14:41  
Так щось вже не те.
Patriot_ukr 
VIP


З нами з: 06.04.15
Востаннє: 10.12.16
Повідомлень: 491

2015-11-02 20:26  

spalabutyi 
Свій


З нами з: 17.09.09
Востаннє: 03.11.16
Повідомлень: 140

2015-11-08 22:38  
Patriot_ukr
Дякую.

tpolit 
Частий відвідувач


З нами з: 10.01.15
Востаннє: 10.12.16
Повідомлень: 32

2016-02-27 11:57  
Народ, а другий сезон буде? Бо, здається, вже вийшов.
spalabutyi 
Свій


З нами з: 17.09.09
Востаннє: 03.11.16
Повідомлень: 140

2016-03-10 15:41  
tpolit написано:
Бо, здається, вже вийшов.


на Disney XD еще не завершився, не впевнений, чи його вже перекладали у нас.

Ваш часовий пояс: GMT + 2 Години

Нова тема   Відповісти