Завантажити та скачати торренти українською


Дейв / Dave (1993) 720p 2xUkr/Eng | Sub Eng

Нові коментарі

Нова тема   Відповісти
Автор Повідомлення
Anonymous 







2015-09-15 21:51  
Дейв / Dave (1993) 720p 2xUkr/Eng | Sub Eng



Оригінальні обкладинки та постери






повнорозмірні зображення відкриються по кліку (з натиснутим CTRL чи кліком середньою кнопкою мишки - у новій вкладці)


Жанр: комедія, романтичний
Країна: США



Кінокомпанія: Warner Bros., Northern Lights Entertainment, Donner/Shuler-Donner Productions
Режисер: Айвен Рейтмен / Ivan Reitman
Актори: Кевін Кляйн / Kevin Kline, Сіґурні Вівер / Sigourney Weaver, Френк Ланджелла / Frank Langella, Кевін Данн / Kevin Dunn, Вінґ Реймс / Ving Rhames, Бен Кінґслі / Ben Kingsley, Лора Лінні / Laura Linney, Олівер Стоун / Oliver Stone, Арнольд Шварценеґер / Arnold Schwarzenegger та інші

Сюжет:
Дейва Ковіка, дуже схожого на американського президента, запрошують заміняти главу країни під час публічних появ, але в перший же вихід справжнього президента схопив інсульт і, прямо скажемо, не на робочому місці, а на коханці. Амбітний голова адміністрації президента США, не бажаючи, щоб влада перейшла до віце-президента, просить Дейва і далі вдавати президента "на користь країні". І актор виявляється набагато кращим президентом, ніж справжній. Він набирається сміливості, звільняє свого помічника і бере правління в свої руки ...


Рейтинг MPAA: PG-13 - дітям до 13 років перегляд не бажаний
Вікова категорія: 12+

Тривалість: 01:49:53
Якість: 720p [DON]
Відео:
кодек:
розмір кадру: 1280 x 720
бітрейт: 9930 кбіт/с

Аудіо # 1:
мова: українська
переклад: багатоголосий закадровий
кодек: 2.0
бітрейт: 192 кбіт/с

Аудіо # 2:
мова: українська
переклад: двоголосий закадровий
ролі озвучили: Олесь Гімбаржевський і Олена Узлюк
кодек: 2.0
бітрейт: 192 кбіт/с

Аудіо # 3:
мова: англійська
переклад: оригінал
кодек: 2.0
бітрейт: 960 кбіт/с

Субтитри # 1-3:
мова: англійська (повні, DVD-версія, SDH)
тип: програмні (м'які)
формат: *.srt

Збережено оригінальні розділи, як на Blu-ray.
MediaInfo
Код:
General
Unique ID                   : 245230695456593013443313067425366276852 (0xB87DB6C67E6D96F0B568444810DFFAF4)
Complete name               : Dave (1993) [2xUkr,Eng sub.Eng] 720p [Hurtom & HDClub].mkv
Format                      : Matroska
Format version              : Version 4 / Version 2
File size                   : 8.65 GiB
Duration                    : 1h 49mn
Overall bit rate            : 11.3 Mbps
Movie name                  : Дейв / Dave (1993) [2xUkr,Eng sub.Eng] 720p [Hurtom & HDClub]
Encoded date                : UTC 2015-09-15 18:00:39
Writing application         : mkvmerge v8.3.0 ('Over the Horizon') 64bit
Writing library             : libebml v1.3.1 + libmatroska v1.4.2
Attachements                : cover.jpg
DURATION                    : 01:49:43.296000000
NUMBER_OF_FRAMES            : 205728
NUMBER_OF_BYTES             : 157999104
_STATISTICS_WRITING_APP     : mkvmerge v8.3.0 ('Over the Horizon') 64bit
_STATISTICS_WRITING_DATE_UT : 2015-09-15 18:00:39
_STATISTICS_TAGS            : BPS DURATION NUMBER_OF_FRAMES NUMBER_OF_BYTES

Video
ID                          : 1
Format                      : AVC
Format/Info                 : Advanced Video Codec
Format profile              : [email protected]
Format settings, CABAC      : Yes
Format settings, ReFrames   : 9 frames
Codec ID                    : V_MPEG4/ISO/AVC
Duration                    : 1h 49mn
Bit rate                    : 9 930 Kbps
Width                       : 1 280 pixels
Height                      : 720 pixels
Display aspect ratio        : 16:9
Frame rate mode             : Constant
Frame rate                  : 23.976 fps
Color space                 : YUV
Chroma subsampling          : 4:2:0
Bit depth                   : 8 bits
Scan type                   : Progressive
Bits/(Pixel*Frame)          : 0.449
Stream size                 : 7.45 GiB (86%)
Title                       : Дейв / Dave (1993) 720p [DON]
Writing library             : core 125 r2200 999b753
Encoding settings           : cabac=1 / ref=9 / deblock=1:-3:-3 / analyse=0x3:0x133 / me=umh / subme=10 / psy=1 / psy_rd=1.00:0.02 / mixed_ref=1 / me_range=32 / chroma_me=1 / trellis=2 / 8x8dct=1 / cqm=0 / deadzone=21,11 / fast_pskip=0 / chroma_qp_offset=-3 / threads=6 / lookahead_threads=1 / sliced_threads=0 / nr=0 / decimate=1 / interlaced=0 / bluray_compat=0 / constrained_intra=0 / bframes=8 / b_pyramid=2 / b_adapt=2 / b_bias=0 / direct=3 / weightb=1 / open_gop=0 / weightp=2 / keyint=250 / keyint_min=23 / scenecut=40 / intra_refresh=0 / rc_lookahead=40 / rc=2pass / mbtree=1 / bitrate=9930 / ratetol=1.0 / qcomp=0.75 / qpmin=0 / qpmax=69 / qpstep=4 / cplxblur=20.0 / qblur=0.5 / ip_ratio=1.40 / aq=1:0.80
Language                    : English
Default                     : Yes
Forced                      : No
DURATION                    : 01:49:53.629000000
NUMBER_OF_FRAMES            : 158089
NUMBER_OF_BYTES             : 8178329203
_STATISTICS_WRITING_APP     : mkvmerge v8.3.0 ('Over the Horizon') 64bit
_STATISTICS_WRITING_DATE_UT : 2015-09-15 18:00:39
_STATISTICS_TAGS            : BPS DURATION NUMBER_OF_FRAMES NUMBER_OF_BYTES

Audio #1
ID                          : 2
Format                      : AC-3
Format/Info                 : Audio Coding 3
Mode extension              : CM (complete main)
Format settings, Endianness : Big
Codec ID                    : A_AC3
Duration                    : 1h 49mn
Bit rate mode               : Constant
Bit rate                    : 192 Kbps
Channel(s)                  : 2 channels
Channel positions           : Front: L R
Sampling rate               : 48.0 KHz
Compression mode            : Lossy
Stream size                 : 151 MiB (2%)
Title                       : MVO [ICTV] 2.0 192 kbps [Hurtom-bodia87]
Language                    : Ukrainian
Default                     : Yes
Forced                      : No

Audio #2
ID                          : 3
Format                      : AC-3
Format/Info                 : Audio Coding 3
Mode extension              : CM (complete main)
Format settings, Endianness : Big
Codec ID                    : A_AC3
Duration                    : 1h 49mn
Bit rate mode               : Constant
Bit rate                    : 192 Kbps
Channel(s)                  : 2 channels
Channel positions           : Front: L R
Sampling rate               : 48.0 KHz
Compression mode            : Lossy
Stream size                 : 151 MiB (2%)
Title                       : DVO [Novyj] 2.0 192 kbps [Hurtom-bodia87,bogdan8249]
Language                    : Ukrainian
Default                     : No
Forced                      : No

Audio #3
ID                          : 4
Format                      :
Format/Info                 : Digital Theater Systems
Mode                        : 16
Format settings, Endianness : Big
Codec ID                    : A_DTS
Duration                    : 1h 49mn
Bit rate mode               : Constant
Bit rate                    : 960 Kbps
Channel(s)                  : 2 channels
Channel positions           : Front: L R
Sampling rate               : 48.0 KHz
Bit depth                   : 24 bits
Compression mode            : Lossy
Stream size                 : 755 MiB (9%)
Title                       : Original 2.0 960 kbps
Language                    : English
Default                     : No
Forced                      : No

Text #1
ID                          : 5
Format                      : UTF-8
Codec ID                    : S_TEXT/UTF8
Codec ID/Info               : UTF-8 Plain Text
Title                       : [Full]
Language                    : English
Default                     : No
Forced                      : No

Text #2
ID                          : 6
Format                      : UTF-8
Codec ID                    : S_TEXT/UTF8
Codec ID/Info               : UTF-8 Plain Text
Title                       : [DVD]
Language                    : English
Default                     : No
Forced                      : No

Text #3
ID                          : 7
Format                      : UTF-8
Codec ID                    : S_TEXT/UTF8
Codec ID/Info               : UTF-8 Plain Text
Title                       : [SDH]
Language                    : English
Default                     : No
Forced                      : No

Menu
00:00:00.000                : :00:00:00.000
00:03:17.322                : :00:03:17.322
00:05:19.569                : :00:05:19.569
00:07:23.276                : :00:07:23.276
00:08:56.494                : :00:08:56.494
00:15:33.057                : :00:15:33.057
00:19:03.768                : :00:19:03.768
00:25:33.198                : :00:25:33.198
00:33:48.777                : :00:33:48.777
00:36:43.701                : :00:36:43.701
00:40:51.157                : :00:40:51.157
00:43:27.814                : :00:43:27.814
00:48:47.341                : :00:48:47.341
00:52:33.233                : :00:52:33.233
00:55:01.465                : :00:55:01.465
01:01:55.253                : :01:01:55.253
01:06:06.754                : :01:06:06.754
01:12:36.644                : :01:12:36.644
01:16:53.067                : :01:16:53.067
01:22:12.386                : :01:22:12.386
01:24:11.004                : :01:24:11.004
01:26:23.720                : :01:26:23.720
01:32:25.039                : :01:32:25.039
01:38:42.959                : :01:38:42.959
01:41:19.991                : :01:41:19.991
01:43:19.276                : :01:43:19.276
01:45:32.743                : :01:45:32.743
Оригінал <----------> Ріп







Джерела та подяки: &
ріп відео, оригінальні звук та субтитри - DON (HDbits), madoff (HDClub); українські доріжки - bodia87 (1), bogdan8249 (2); українізований постер - igor911; фільмографії акторів та інформація про озвучення - Віктор, Тирік (всі - Гуртом).



ЗАЛИШАЙТЕСЬ ЯКОМОГА ДОВШЕ НА РОЗДАЧІ!

СКАЧАВ САМ - ДАЙ СКАЧАТИ ІНШИМ


Срібний реліз (на рейтинг впливає 50% завантаженого)
 Трекер:    Зареєстрований   

Завантажити / скачати фільм українською



відео для новачків



 Зареєстрований:   2015-09-15 21:51
 Розмір:   8.65 GB 
 Оцінка фільму:   3.6/10 (Голосів: 14)
   
Інші релізи
   Дейв / Dave (1993) 2xUkr/Eng bodia87  4 / 0   2.19 GB   2013-07-17 15:59 
   Дейв / Dave (1993) Ukr/Eng bogdan8249  0 / 0   1.41 GB   2011-05-07 21:42 
Ваш часовий пояс: GMT + 2 Години

Нова тема   Відповісти