Завантажити та скачати торренти українською


Львівське ретро - Богдан Весоловський. Стрийське танго (2012) [FLAC] | Retro Pop

Нові коментарі

Нова тема   Відповісти
Автор Повідомлення
ssTAss 
Модератор музики


З нами з: 05.07.08
Востаннє: 05.12.16
Повідомлень: 10939

2015-09-13 20:27  
Львівське ретро - Богдан Весоловський. Стрийське танго (2012) [FLAC] | Retro Pop

Львівське ретро - Богдан Весоловський. Стрийське танго (2012) [FLAC] | Retro Pop


Стиль: Retro Pop
Країна, місто: Україна, Львів
Видавець: Ігор Осташ
Виконавці:
Львівське ретро
художній керівник, композитор та диригент Ростислав Демчишин
Камерний оркестр під керівництвом Р. Демчишина
солісти: заслужена артистка України Леся Боровець
заслужений артист України Володимир Кудовба
Чоловічий квартет в складі: В. Кудовба, О. Цар, Б Осадчук, В. Рибак
Акордеон - Мирослав Костюк
Диригент - заслужений діяч мистецтв України Ростислав Демчишин
Пісні:
    01 - Молитва матері
    02 - Чар карпатських гір
    03 - Ти з любови собі не жартуй
    04 - Було не тужити
    05 - Ти і твої чорні очі
    06 - Катеринка
    07 - Прийде ще час
    08 - Лети, тужлива пісне
log
Exact Audio Copy V0.99 prebeta 5 from 4. May 2009

Звіт EAC про видобування, котре виконане 13. вересня 2015, 20:44

Львівське ретро / Богдан Весоловський. Стрийське танго

Дисковод: SlimtypeDVD A DS8A1H Adapter: 1 ID: 0

Режим читання : Точний
Використати точний потік : Так
Вимкнути аудіо кеш : Так
Застосувати мітки C2 : Ні

Корекція зміщення при читанні : 594
Екстрачитання областей Lead-in і Lead-out : Ні
Заповнення пропущених семплів тишею : Так
Видалення блоків з тишею на початку і кінці : Ні
При вирахуванні CRC використовувались нульові семпли : Так
Використаний інтерфейс : 'Рідний' Win32-інтерфейс для Win NT/2000

Застосований вихідний формат : Кодер Користувача
Обраний бітрейт : 1024 kBit/s
Якість : Високий
Додати тег ID3 : Ні
Компресор командного рядка : C:\Program Files\Exact Audio Copy\Flac\flac.exe
Додаткові параметри командного рядка : -8 -V -T "ARTIST=%a" -T "TITLE=%t" -T "ALBUM=%g" -T "DATE=%y" -T "TRACKNUMBER=%n" -T "GENRE=%m" -T "COMMENT=EAC FLAC -8" %s

TOC видобутого CD

Трек | Старт | Довжина | Початковий сектор | Кінцевий сектор
------------------------------------------------------------------
1 | 0:00.00 | 3:04.59 | 0 | 13858
2 | 3:04.59 | 3:55.72 | 13859 | 31555
3 | 7:00.56 | 3:30.70 | 31556 | 47375
4 | 10:31.51 | 4:19.55 | 47376 | 66855
5 | 14:51.31 | 5:01.34 | 66856 | 89464
6 | 19:52.65 | 4:31.28 | 89465 | 109817
7 | 24:24.18 | 4:23.27 | 109818 | 129569
8 | 28:47.45 | 5:39.70 | 129570 | 155064

Статус діапазону і помилки

Обраний діапазон

Ім'я файлу C:\Temp\Rdio\Львівське ретро - Богдан Весоловський. Стрийське танго.wav

Піковий рівень 100.0 %
Якість діапазону 100.0 %
CRC тесту 8A9937DD
CRC копії 8A9937DD
Копіювання... OK

Помилки не траплялися

Звіт Точного Видобування

Трек 1 не присутнє в базі даних
Трек 2 не присутнє в базі даних
Трек 3 не присутнє в базі даних
Трек 4 не присутнє в базі даних
Трек 5 не присутнє в базі даних
Трек 6 не присутнє в базі даних
Трек 7 не присутнє в базі даних
Трек 8 не присутнє в базі даних

Жодного трека немає в базі AccurateRip

Кінець звіту
fooCDtect
fooCDtect - foobar2000 + auCDtect, baralgin.

auCDtect: CD records authenticity detector, version 0.8.2
Copyright (c) 2004 Oleg Berngardt. All rights reserved.
Copyright (c) 2004 Alexander Djourik. All rights reserved.

mode: 0

===========================================
Track: 01 - Молитва матері
Quality: CDDA 100%
===========================================
Track: 02 - Чар карпатських гір
Quality: CDDA 100%
===========================================
Track: 03 - Ти з любови собі не жартуй
Quality: CDDA 99%
===========================================
Track: 04 - Було не тужити
Quality: CDDA 100%
===========================================
Track: 05 - Ти і твої чорні очі
Quality: CDDA 100%
===========================================
Track: 06 - Катеринка
Quality: CDDA 100%
===========================================
Track: 07 - Прийде ще час
Quality: CDDA 100%
===========================================
Track: 08 - Лети, тужлива пісне
Quality: CDDA 100%
===========================================
Тривалість: 00:34:28
Мова: українська
Аудіо-кодек: FLAC
Бітрейт: 801 кб/с
Джерело: диск надав володимирко2, ріп власний
Додаткова інформація:
Твори Богдана Весоловського в музичній обробці Ростислава Демчишина


Якщо Ви справді бажаєте підтримати українське - після прослуховування, якщо музика вам сподобалась,
придбайте ліцензійний диск.
Підтримаймо вітчизняних виконавців!


Срібний реліз (на рейтинг впливає 50% завантаженого)
 Трекер:    Зареєстрований   

Завантажити / скачати українську музику



відео для новачків



 Зареєстрований:   2015-09-13 20:27
 Розмір:   208 MB 
 Оцінка музики:   4.8/10 (Голосів: 24)
   
maxnet 
Частий відвідувач


З нами з: 13.01.10
Востаннє: 20.10.16
Повідомлень: 38

2015-09-14 15:02  
Дякую!
Спочатку був зрадів неймовірно, а потім трохи скис Happy
В мене колись була касета, з якої знайшов тільки три треки - ось вони
http://umusic.no-ip.org/share/EZQAv
Але те що на цьому диску - то щось не то. Або інший колектив, або не ті виконавці.
Я правда в історію колективу не заглиблювався, але добре запам'ятав голос чоловіка-"баса"... От його на цьому CD не почув..
Є в когось інформація або ще якісь пісні саме того гурту, який був 30 років тому?

володимирко2 
Оцифрування книг Гуртом


З нами з: 28.02.10
Востаннє: 04.12.16
Повідомлень: 1107

2016-01-27 21:09  
Документальна спадщина Богдана Весоловського у аудіовізуальній колекції ЦДКФФА України ім. Г. С. Пшеничного http://www.archives.gov.ua/Publicat/AU/AU_4_2015/09.pdf
ярий тверезенник 
VIP


З нами з: 29.01.12
Востаннє: 04.12.16
Повідомлень: 1592

2016-09-20 17:03  
Львівське ретро - Знову у Львові (2000) [MP3] - http://toloka.to/t76167
Ваш часовий пояс: GMT + 2 Години

Нова тема   Відповісти