Завантажити та скачати торренти українською


Не для дівчат / A Guy Thing (2003) 720p Ukr/Eng | Sub Eng

Нові коментарі

Нова тема   Відповісти
Автор Повідомлення
Anonymous 







2015-09-11 15:58  
Не для дівчат / A Guy Thing (2003) 720p Ukr/Eng | Sub Eng



Оригінальні обкладинки та постери










повнорозмірні зображення відкриються по кліку (з натиснутим CTRL чи кліком середньою кнопкою мишки - у новій вкладці)


Жанр: комедія, мелодрама
Країна: США



Кінокомпанія: Metro-Goldwyn-Mayer (MGM), David Ladd Films
Режисер: Кріс Кох / Chris Koch
Актори: Джейсон Лі / Jason Lee, Джулія Стайлз / Julia Stiles, Сельма Блер / Selma Blair, Джеймс Бролін / James Brolin, Шон Хетосі / Shawn Hatosy, Локлін Манро / Lochlyn Munro, Дайана Скервід / Diana Scarwid, Девід Кокнер / David Koechner, Джулі Хегерті / Julie Hagerty, Томас Леннон / Thomas Lennon, Фред Еванюк / Fred Ewanuick та інші

Сюжет:
Похмільний ранок після веселої холостяцької гулянки перетворився для Пола на справжній стрес: у його в ліжку спить гола дівчина, в якій насилу пригадав стриптизерку Беккі, а ось-ось має приїхати наречена. Пол всіляко намагається приховати цей факт. Одна брехня чіпляється за іншу, у підсумку Пол занурюється в океан брехні. І все б нічого, та стриптизерка виявилася кузиною його нареченої. Полу доводиться виявити неабияку мужність, щоб розібратись у своїх почуттях та виправити ситуацію.


Рейтинг MPAA: PG-13 - дітям до 13 років перегляд не бажаний
Вікова категорія: 12+

Тривалість: 01:41:29
Якість: 720p
Відео:
кодек:
розмір кадру: 1280 х 694
бітрейт: 6256 кбіт/с

Аудіо # 1:
мова: українська
переклад: багатоголосий закадровий
кодек: 2.0
бітрейт: 192 кбіт/с

Аудіо # 2:
мова: англійська
переклад: оригінал
кодек: 5.1
бітрейт: 1509 кбіт/с

Аудіо # 3:
мова: англійська
переклад: коментарі авторів фільму
кодек: 2.0
бітрейт: 224 кбіт/с

Субтитри:
мова: англійська (SDH)
тип: програмні (м'які)
формат: *.srt
MediaInfo
Код:
General
Unique ID                   : 253219823854275845699254004036895184210 (0xBE805D37730DA9CCB48BB8E0EDD31552)
Complete name               : A Guy Thing (2003) [Ukr,Eng sub.Eng] 720p [Hurtom & HDClub].mkv
Format                      : Matroska
Format version              : Version 4 / Version 2
File size                   : 5.80 GiB
Duration                    : 1h 41mn
Overall bit rate            : 8 183 Kbps
Movie name                  : Не для дівчат / A Guy Thing (2003) [Ukr,Eng sub.Eng] 720p [Hurtom & HDClub]
Encoded date                : UTC 2015-09-11 11:41:01
Writing application         : mkvmerge v8.3.0 ('Over the Horizon') 64bit
Writing library             : libebml v1.3.1 + libmatroska v1.4.2
Attachements                : cover.jpg
DURATION                    : 01:41:29.952000000
NUMBER_OF_FRAMES            : 190311
NUMBER_OF_BYTES             : 146158848
_STATISTICS_WRITING_APP     : mkvmerge v8.3.0 ('Over the Horizon') 64bit
_STATISTICS_WRITING_DATE_UT : 2015-09-11 11:41:01
_STATISTICS_TAGS            : BPS DURATION NUMBER_OF_FRAMES NUMBER_OF_BYTES

Video
ID                          : 1
Format                      : AVC
Format/Info                 : Advanced Video Codec
Format profile              : [email protected]
Format settings, CABAC      : Yes
Format settings, ReFrames   : 9 frames
Codec ID                    : V_MPEG4/ISO/AVC
Duration                    : 1h 41mn
Bit rate                    : 6 256 Kbps
Width                       : 1 280 pixels
Height                      : 694 pixels
Display aspect ratio        : 1.85:1
Frame rate mode             : Constant
Frame rate                  : 23.976 fps
Color space                 : YUV
Chroma subsampling          : 4:2:0
Bit depth                   : 8 bits
Scan type                   : Progressive
Bits/(Pixel*Frame)          : 0.294
Stream size                 : 4.32 GiB (74%)
Title                       : Не для дівчат / A Guy Thing / Мальчишник (2003) 720p [HDClub-BWS9]
Writing library             : core 115 r2008+578 3864dbe
Encoding settings           : cabac=1 / ref=9 / deblock=1:-3:-3 / analyse=0x3:0x113 / me=umh / subme=9 / psy=1 / fade_compensate=0.00 / psy_rd=1.05:0.10 / mixed_ref=1 / me_range=32 / chroma_me=1 / trellis=2 / 8x8dct=1 / cqm=1 / deadzone=21,11 / fast_pskip=0 / chroma_qp_offset=-2 / threads=6 / sliced_threads=0 / nr=0 / decimate=1 / interlaced=0 / bluray_compat=0 / constrained_intra=0 / fgo=0 / bframes=6 / b_pyramid=2 / b_adapt=2 / b_bias=0 / direct=3 / weightb=1 / open_gop=0 / weightp=2 / keyint=250 / keyint_min=23 / scenecut=40 / intra_refresh=0 / rc_lookahead=40 / rc=2pass / mbtree=1 / bitrate=6256 / ratetol=1.0 / qcomp=0.60 / qpmin=3 / qpmax=69 / qpstep=4 / cplxblur=20.0 / qblur=0.5 / vbv_maxrate=40000 / vbv_bufsize=30000 / nal_hrd=none / ip_ratio=1.40 / aq=1:1.00
Language                    : English
Default                     : Yes
Forced                      : No
DURATION                    : 01:41:29.913000000
NUMBER_OF_FRAMES            : 146012
NUMBER_OF_BYTES             : 4760716688
_STATISTICS_WRITING_APP     : mkvmerge v8.3.0 ('Over the Horizon') 64bit
_STATISTICS_WRITING_DATE_UT : 2015-09-11 11:41:01
_STATISTICS_TAGS            : BPS DURATION NUMBER_OF_FRAMES NUMBER_OF_BYTES

Audio #1
ID                          : 2
Format                      : AC-3
Format/Info                 : Audio Coding 3
Mode extension              : CM (complete main)
Format settings, Endianness : Big
Codec ID                    : A_AC3
Duration                    : 1h 41mn
Bit rate mode               : Constant
Bit rate                    : 192 Kbps
Channel(s)                  : 2 channels
Channel positions           : Front: L R
Sampling rate               : 48.0 KHz
Compression mode            : Lossy
Stream size                 : 139 MiB (2%)
Title                       : MVO [Novyj] 2.0 192 kbps [Hurtom-Arsenfpu]
Language                    : Ukrainian
Default                     : Yes
Forced                      : No

Audio #2
ID                          : 3
Format                      :
Format/Info                 : Digital Theater Systems
Mode                        : 16
Format settings, Endianness : Big
Codec ID                    : A_DTS
Duration                    : 1h 41mn
Bit rate mode               : Constant
Bit rate                    : 1 509 Kbps
Channel(s)                  : 6 channels
Channel positions           : Front: L C R, Side: L R, LFE
Sampling rate               : 48.0 KHz
Bit depth                   : 24 bits
Compression mode            : Lossy
Stream size                 : 1.07 GiB (18%)
Title                       : Original 5.1 1509 kbps
Language                    : English
Default                     : No
Forced                      : No

Audio #3
ID                          : 4
Format                      : AC-3
Format/Info                 : Audio Coding 3
Mode extension              : CM (complete main)
Format settings, Endianness : Big
Codec ID                    : A_AC3
Duration                    : 1h 41mn
Bit rate mode               : Constant
Bit rate                    : 224 Kbps
Channel(s)                  : 2 channels
Channel positions           : Front: L R
Sampling rate               : 48.0 KHz
Compression mode            : Lossy
Stream size                 : 163 MiB (3%)
Title                       : Commentary by Filmmakers 2.0 224 kbps
Language                    : English
Default                     : No
Forced                      : No

Text
ID                          : 5
Format                      : UTF-8
Codec ID                    : S_TEXT/UTF8
Codec ID/Info               : UTF-8 Plain Text
Title                       : Eng SDH
Language                    : English
Default                     : Yes
Forced                      : No




Джерела та подяки: &
ріп відео, оригінальні звук та субтитри - BWS9 (HDClub); українська доріжка - Arsenfpu; українізований постер - sizars (всі - Гуртом).



ЗАЛИШАЙТЕСЬ ЯКОМОГА ДОВШЕ НА РОЗДАЧІ!

СКАЧАВ САМ - ДАЙ СКАЧАТИ ІНШИМ


Срібний реліз (на рейтинг впливає 50% завантаженого)
 Трекер:    Зареєстрований   

Завантажити / скачати фільм українською



відео для новачків



 Зареєстрований:   2015-09-11 15:58
 Розмір:   5.8 GB 
 Оцінка фільму:   2.5/10 (Голосів: 12)
   
Інші релізи
   Не для дівчат / A Guy Thing (2003) Ukr/Eng Arsenfpu  5 / 0   1.87 GB   2015-08-29 10:29 
Ваш часовий пояс: GMT + 2 Години

Нова тема   Відповісти