Завантажити та скачати торренти українською


Nokturnal Mortum - Голос Сталі (2×CD, Deluxe Edition, Remastered & Remixed 2015) (2009) [FLAC] | Folk Symphonic Black Metal

Нові коментарі

Нова тема   Відповісти
Автор Повідомлення
kolpavel 
VIP


З нами з: 04.05.14
Востаннє: 07.12.16
Повідомлень: 1059

2015-09-09 20:05  
Nokturnal Mortum - Голос Сталі (2×CD, Deluxe Edition, Remastered & Remixed 2015) (2009) [FLAC] | Folk Symphonic Black Metal


Nokturnal Mortum - Голос Сталі (2×CD, Deluxe Edition, Remastered & Remixed 2015) (2009) [FLAC] | Folk Symphonic Black Metal


Стиль: Folk Symphonic Black Metal
Країна, місто: Україна, Харків
Сайти: Офіційний сайт
Видавець: ℗ 2015 Oriana Music (№ за каталогом: OMCD16)
Виконавці:
Art Direction, Artwork By [Concept By] – Varggoth*, Sir Gorgoroth
Artwork By [Front Cover Art Created By] – Victor Titov
Bass – Vrolok (2)
Design – Sir Gorgoroth
Drums – Bairoth
Engineer [Engineered By, Mastering] – Brian Elliott
Engineer [Engineered By, Mixing] – Sergey Kondratiev*
Engineer [Engineered By, Recording] – Andrey Veryovkin
Guitar [Guitars], Backing Vocals – Astargh
Keyboards, Instruments [Native] – Saturious
Keyboards, Vocals [Clean] – W. Angel
Painting – Sir Gorgoroth
Producer [Produced By] – Eugeny Gapon
Songwriter [All Songs By] – Nokturnal Mortum
Violin [Violins] – Alafern
Vocals, Guitar [Guitars] – Knjaz Varggoth

Пісні:
    CD1:
    1. Intro - 3:05
    2. The Voice Of Steel - 9:54
    3. Valkyria - 10:47
    4. Ukraine - 8:24
    5. My Dream Islands - 11:47
    6. By Path Of The Sun - 9:06
    7. Sky Of Saddened Nights - 4:50
    8. White Tower - 11:48

    CD2 (Bonus Section):
    1. Valkyria (Early Version)
    2. Valhalla (Bathory Cover)
    3. Sky of Saddened Nights (Early Version)
    4. Nights in White Satin (The Moody Blues Cover)

Тривалість: CD1 - 01:10:59 i CD2 - 00:31:53
Мова: українська (CD1 - 1,2, 4-8), (CD2 - 3,4), росiйська (CD1 - 3), (CD2 - 1,2)
Аудіо-кодек: FLAC
Бітрейт: 1079 кб/с
Джерело: iнтернет
Додаткова інформація:
Лог CD1
Exact Audio Copy V1.0 beta 4 from 7. December 2014

EAC extraction logfile from 23. January 2015, 13:12

Nokturnal Mortum / The Voice Of Steel

Used drive : ASUS DRW-1608P Adapter: 1 ID: 0

Read mode : Secure
Utilize accurate stream : Yes
Defeat audio cache : Yes
Make use of C2 pointers : No

Read offset correction : 48
Overread into Lead-In and Lead-Out : No
Fill up missing offset samples with silence : Yes
Delete leading and trailing silent blocks : No
Null samples used in CRC calculations : Yes
Used interface : Native Win32 interface for Win NT & 2000

Used output format : Internal WAV Routines
Sample format : 44.100 Hz; 16 Bit; Stereo

TOC of the extracted CD

Track | Start | Length | Start sector | End sector
---------------------------------------------------------
1 | 0:00.00 | 3:38.53 | 0 | 16402
2 | 3:38.53 | 9:53.41 | 16403 | 60918
3 | 13:32.19 | 10:47.37 | 60919 | 109480
4 | 24:19.56 | 8:24.22 | 109481 | 147302
5 | 32:44.03 | 12:01.13 | 147303 | 201390
6 | 44:45.16 | 9:09.67 | 201391 | 242632
7 | 53:55.08 | 4:50.55 | 242633 | 264437
8 | 58:45.63 | 12:14.09 | 264438 | 319496

Range status and errors

Selected range

Filename D:\Nokturnal Mortum - The Voice Of Steel.wav

Peak level 99.1 %
Extraction speed 0.5 X
Range quality 98.8 %
Test CRC DB1EC6A1
Copy CRC DB1EC6A1
Copy OK

No errors occurred

AccurateRip summary

Track 1 not present in database
Track 2 not present in database
Track 3 not present in database
Track 4 not present in database
Track 5 not present in database
Track 6 not present in database
Track 7 not present in database
Track 8 not present in database

None of the tracks are present in the AccurateRip database

End of status report

---- CUETools DB Plugin V2.1.5

[CTDB TOCID: OeS9lh_Jq0Mj9wf8qtU6qOxGgFQ-] disk not present in database
Submit result: OeS9lh_Jq0Mj9wf8qtU6qOxGgFQ- has been uploaded

==== Log checksum A3902289C48C7DC5169A2AAFB69936DF65623CE272DBDC3E3C513A18E5698DCA ====
Лог CD2
Exact Audio Copy V1.0 beta 4 from 7. December 2014

EAC extraction logfile from 23. January 2015, 4:49

Nokturnal Mortum / The Voice Of Steel (Bonus Section)

Used drive : ASUS DRW-1608P Adapter: 1 ID: 0

Read mode : Secure
Utilize accurate stream : Yes
Defeat audio cache : Yes
Make use of C2 pointers : No

Read offset correction : 48
Overread into Lead-In and Lead-Out : No
Fill up missing offset samples with silence : Yes
Delete leading and trailing silent blocks : No
Null samples used in CRC calculations : Yes
Used interface : Native Win32 interface for Win NT & 2000

Used output format : Internal WAV Routines
Sample format : 44.100 Hz; 16 Bit; Stereo

TOC of the extracted CD

Track | Start | Length | Start sector | End sector
---------------------------------------------------------
1 | 0:00.00 | 12:43.13 | 0 | 57237
2 | 12:43.13 | 9:09.29 | 57238 | 98441
3 | 21:52.42 | 4:52.70 | 98442 | 120411
4 | 26:45.37 | 5:07.46 | 120412 | 143482

Range status and errors

Selected range

Filename D:\Nokturnal Mortum - The Voice Of Steel (Bonus Section).wav

Peak level 98.1 %
Extraction speed 6.0 X
Range quality 100.0 %
Test CRC 624529B4
Copy CRC 624529B4
Copy OK

No errors occurred

AccurateRip summary

Track 1 not present in database
Track 2 not present in database
Track 3 not present in database
Track 4 not present in database

None of the tracks are present in the AccurateRip database

End of status report

---- CUETools DB Plugin V2.1.5

[CTDB TOCID: gKdxpVgug_AY8nQ17P_Qk93zoDA-] disk not present in database
Submit result: gKdxpVgug_AY8nQ17P_Qk93zoDA- has been uploaded

==== Log checksum 67A91381281066FB12835D74A6696AEC85D760116CC87CEADACA9D336A92DA50 ====


Якщо Ви справді бажаєте підтримати українське - після прослуховування, якщо музика вам сподобалась, придбайте ліцензійний диск. Підтримаймо вітчизняних виконавців!


Срібний реліз (на рейтинг впливає 50% завантаженого)
 Трекер:    Зареєстрований   

Завантажити / скачати українську музику



відео для новачків



 Зареєстрований:   2015-09-09 20:05
 Розмір:   1.14 GB 
 Оцінка музики:   9.7/10 (Голосів: 7)
   
Lev 
VIP


З нами з: 14.10.09
Востаннє: 05.12.16
Повідомлень: 1819

2015-09-13 01:36  
серйозний підгон, не сподівався тут побачити
kolpavel 
VIP


З нами з: 04.05.14
Востаннє: 07.12.16
Повідомлень: 1059

2015-09-20 23:14  
Довго перевiряли релiз, мабудь сумнівалися.
Ваш часовий пояс: GMT + 2 Години

Нова тема   Відповісти