Завантажити та скачати торренти українською


Somnolent | Дискографія (2CD + 1CD split) (2008-11) [FLAC] | Funeral Doom Metal

Нові коментарі

Нова тема   Відповісти
Останній раз роздавалося kolpavel (2016-12-09)
Автор Повідомлення
kolpavel 
VIP


З нами з: 04.05.14
Востаннє: 09.12.16
Повідомлень: 1059

2015-09-08 18:45  
Somnolent | Дискографія (2CD + 1CD split) (2008-11) [FLAC] | Funeral Doom Metal


Somnolent | Дискографія (2CD + 1CD split) (2008-11) [FLAC] | Funeral Doom Metal


Стиль: Funeral Doom Metal
Країна, місто: Україна, Одеса
Видавець: Solitude Productions / Slow Burn Records / Krobak та Somnolent
Виконавці:
Олексій - вокал
Микола - гітара
Костянтин - соло-гітара, ефекти
Євген - бас
Юрій - ударні

    Альбоми:
    2008 - Monochromes Philosophy

    Somnolent | Дискографія (2CD + 1CD split) (2008-11) [FLAC] | Funeral Doom Metal

    Видавець: Solitude Productions
    Треклист:
    01. Unrequited Love To Reverie (16:06)
    02. Monochromes Philosophy (18:22)
    03. Paradoxes Of The Universe (16:05)
    04. Imperceptible Noise Of Moribund Impressions (07:51)

    Тривалість: 00:58:26
    Мова: англійська
    Бітрейт: 986 кб/с
    Лог
    Exact Audio Copy V1.0 beta 3 from 29. August 2011

    EAC extraction logfile from 13. January 2014, 20:41

    Somnolent / Monochromes Philosophy

    Used drive : TEAC DV-W522GMA Adapter: 0 ID: 0

    Read mode : Secure
    Utilize accurate stream : Yes
    Defeat audio cache : Yes
    Make use of C2 pointers : No

    Read offset correction : 6
    Overread into Lead-In and Lead-Out : No
    Fill up missing offset samples with silence : Yes
    Delete leading and trailing silent blocks : No
    Null samples used in CRC calculations : Yes
    Used interface : Native Win32 interface for Win NT & 2000

    Used output format : User Defined Encoder
    Selected bitrate : 128 kBit/s
    Quality : High
    Add ID3 tag : No
    Command line compressor : C:\Program Files\Exact Audio Copy\Flac\flac.exe
    Additional command line options : -V -8 -T "Date=%year%" -T "Genre=%genre%" %source%

    TOC of the extracted CD

    Track | Start | Length | Start sector | End sector
    ---------------------------------------------------------
    1 | 0:00.00 | 16:06.44 | 0 | 72493
    2 | 16:06.44 | 18:22.50 | 72494 | 155193
    3 | 34:29.19 | 16:05.49 | 155194 | 227617
    4 | 50:34.68 | 7:51.42 | 227618 | 262984

    Range status and errors

    Selected range

    Filename D:\rutracker.org\Sautumnblaze\Somnolent - Monochromes Philosophy.wav

    Peak level 97.1 %
    Extraction speed 8.5 X
    Range quality 100.0 %
    Test CRC E906BC1A
    Copy CRC E906BC1A
    Copy OK

    No errors occurred

    AccurateRip summary

    Track 1 accurately ripped (confidence 2) [2603A3D8] (AR v2)
    Track 2 accurately ripped (confidence 2) [1472CB63] (AR v2)
    Track 3 accurately ripped (confidence 2) [822157FD] (AR v2)
    Track 4 accurately ripped (confidence 2) [98926499] (AR v2)

    All tracks accurately ripped

    End of status report

    ---- CUETools DB Plugin V2.1.5

    [CTDB TOCID: UkSN1bIUSvh9Dxnw18CrOYlBB6E-] found
    Submit result: already submitted
    Track | CTDB Status
    1 | (3/3) Accurately ripped
    2 | (3/3) Accurately ripped
    3 | (3/3) Accurately ripped
    4 | (3/3) Accurately ripped

    ==== Log checksum 18F6864AD8D7261200FCE55A0A20CB03ACD9C2BF8F0FE40B0AB8984D1165B2A2 ====
    (.CUE)
    REM GENRE "Funeral Doom Metal"
    REM DATE 2008
    REM DISCID 2F0DB204
    REM COMMENT "ExactAudioCopy v1.0b3"
    PERFORMER "Somnolent"
    TITLE "Monochromes Philosophy"
    FILE "Somnolent - Monochromes Philosophy.flac" WAVE
    TRACK 01 AUDIO
    TITLE "Unrequited Love To Reverie"
    PERFORMER "Somnolent"
    INDEX 01 00:00:00
    TRACK 02 AUDIO
    TITLE "Monochromes Philosophy"
    PERFORMER "Somnolent"
    INDEX 01 16:06:44
    TRACK 03 AUDIO
    TITLE "Paradoxes Of The Universe"
    PERFORMER "Somnolent"
    INDEX 01 34:29:19
    TRACK 04 AUDIO
    TITLE "Imperceptible Noise Of Moribund Impressions"
    PERFORMER "Somnolent"
    INDEX 01 50:34:68
    2011 - Renaissance Unraveling

    Somnolent | Дискографія (2CD + 1CD split) (2008-11) [FLAC] | Funeral Doom Metal

    Видавець: Slow Burn Records
    Треклист:
    01. Exhale! (05:03)
    02. Emptiness Beyond The Horizon (03:48)
    03. Visible World Eraser (08:22)
    04. P.R.O.S.E. (Poem Risen On Somnolence Error) (02:42)
    05. Solipsistic Exfoliation (07:14)
    06. Chrysalis Verge (Part 1: Inside) (01:56)
    07. Chrysalis Verge (Part 2: Tearing Out) (06:57)
    08. Division Of Nihil (06:12)

    Тривалість: 00:42:17
    Мова: англійська
    Бітрейт: 843 кб/с
    Лог
    Exact Audio Copy V1.0 beta 3 from 29. August 2011

    EAC extraction logfile from 13. January 2014, 21:20

    Somnolent / Renaissance Unraveling

    Used drive : TEAC DV-W522GMA Adapter: 0 ID: 0

    Read mode : Secure
    Utilize accurate stream : Yes
    Defeat audio cache : Yes
    Make use of C2 pointers : No

    Read offset correction : 6
    Overread into Lead-In and Lead-Out : No
    Fill up missing offset samples with silence : Yes
    Delete leading and trailing silent blocks : No
    Null samples used in CRC calculations : Yes
    Used interface : Native Win32 interface for Win NT & 2000

    Used output format : User Defined Encoder
    Selected bitrate : 128 kBit/s
    Quality : High
    Add ID3 tag : No
    Command line compressor : C:\Program Files\Exact Audio Copy\Flac\flac.exe
    Additional command line options : -V -8 -T "Date=%year%" -T "Genre=%genre%" %source%

    TOC of the extracted CD

    Track | Start | Length | Start sector | End sector
    ---------------------------------------------------------
    1 | 0:00.00 | 5:03.71 | 0 | 22795
    2 | 5:03.71 | 3:48.01 | 22796 | 39896
    3 | 8:51.72 | 8:22.46 | 39897 | 77592
    4 | 17:14.43 | 2:42.12 | 77593 | 89754
    5 | 19:56.55 | 7:14.56 | 89755 | 122360
    6 | 27:11.36 | 1:56.11 | 122361 | 131071
    7 | 29:07.47 | 6:57.02 | 131072 | 162348
    8 | 36:04.49 | 6:12.62 | 162349 | 190310

    Range status and errors

    Selected range

    Filename D:\rutracker.org\Sautumnblaze\Somnolent - Renaissance Unraveling.wav

    Peak level 98.8 %
    Extraction speed 2.6 X
    Range quality 99.9 %
    Test CRC B465BE2B
    Copy CRC B465BE2B
    Copy OK

    No errors occurred

    AccurateRip summary

    Track 1 accurately ripped (confidence 2) [8CCD1C77] (AR v2)
    Track 2 accurately ripped (confidence 2) [007EEA58] (AR v2)
    Track 3 accurately ripped (confidence 2) [E453A3C6] (AR v2)
    Track 4 accurately ripped (confidence 2) [01B115C9] (AR v2)
    Track 5 accurately ripped (confidence 2) [0527DD3C] (AR v2)
    Track 6 accurately ripped (confidence 2) [1A69700B] (AR v2)
    Track 7 accurately ripped (confidence 2) [E9C5F117] (AR v2)
    Track 8 accurately ripped (confidence 2) [A17A0196] (AR v2)

    All tracks accurately ripped

    End of status report

    ---- CUETools DB Plugin V2.1.5

    [CTDB TOCID: 4_.7vFGSFqZJk1.DDB722Elo2gg-] found
    Submit result: The request was aborted: The request was canceled.
    Track | CTDB Status
    1 | (1/1) Accurately ripped
    2 | (1/1) Accurately ripped
    3 | (1/1) Accurately ripped
    4 | (1/1) Accurately ripped
    5 | (1/1) Accurately ripped
    6 | (1/1) Accurately ripped
    7 | (1/1) Accurately ripped
    8 | (1/1) Accurately ripped

    ==== Log checksum E117C19FCABA05840094D217E40D69BCC87A85A03DEAB934EF80554E1D668C91 ====
    (.CUE)
    REM GENRE Progressive/Sludge/Post-Metal
    REM DATE 2011
    REM DISCID 6309E908
    REM COMMENT "ExactAudioCopy v1.0b3"
    PERFORMER "Somnolent"
    TITLE "Renaissance Unraveling"
    FILE "Somnolent - Renaissance Unraveling.flac" WAVE
    TRACK 01 AUDIO
    TITLE "Exhale!"
    PERFORMER "Somnolent"
    INDEX 01 00:00:00
    TRACK 02 AUDIO
    TITLE "Emptiness Beyond The Horizon"
    PERFORMER "Somnolent"
    INDEX 01 05:03:71
    TRACK 03 AUDIO
    TITLE "Visible World Eraser"
    PERFORMER "Somnolent"
    INDEX 01 08:51:72
    TRACK 04 AUDIO
    TITLE "P.R.O.S.E. (Poem Risen On Somnolence Error)"
    PERFORMER "Somnolent"
    INDEX 01 17:14:43
    TRACK 05 AUDIO
    TITLE "Solipsistic Exfoliation"
    PERFORMER "Somnolent"
    INDEX 01 19:56:55
    TRACK 06 AUDIO
    TITLE "Chrysalis Verge (Part 1: Inside)"
    PERFORMER "Somnolent"
    INDEX 01 27:11:36
    TRACK 07 AUDIO
    TITLE "Chrysalis Verge (Part 2: Tearing Out)"
    PERFORMER "Somnolent"
    INDEX 01 29:07:47
    TRACK 08 AUDIO
    TITLE "Division Of Nihil"
    PERFORMER "Somnolent"
    INDEX 01 36:04:49
    Split:
    2009 - Somnolent / Krobak(split-EP)

    Somnolent | Дискографія (2CD + 1CD split) (2008-11) [FLAC] | Funeral Doom Metal

    Видавець: Krobak та Somnolent
    Треклист:
    01. Krobak - Park Luny (demo 2007) (11:10)
    02. Somnolent - Visible World Eraser (demo 2008) (09:58)

    Тривалість: 00:21:08
    Мова: без слiв (1)англійська (2)
    Бітрейт: 795-851 кб/с
    audiochecker log
    AUDIOCHECKER v2.0 beta (build 457) - by Dester - [email protected]
    ~~~~~~~~~~~~~~~~~~~~~~~~~~~~~~~~~~

    Started at: понедельник, 02. 03. 2009. - 22:53.23
    2 files found

    1 -===- E:\Somnolent\Music\2009 - Krobak-Somnolent (split)\2009 - Krobak-Somnolent (split).flac\02 - Somnolent - Visible World Eraser.flac
    Extracted successfully
    Conclusion: this track is CDDA with probability 100%
    Tempfile successfully deleted.

    2 -===- E:\Somnolent\Music\2009 - Krobak-Somnolent (split)\2009 - Krobak-Somnolent (split).flac\01 - Krobak - parkluny.flac
    Extracted successfully
    Conclusion: this track is MPEG with probability 95%
    Tempfile successfully deleted.

    Finished at: понедельник, 02. 03. 2009. - 22:55.44 (operation time: 0:02.21)

Тривалість: 02:01:52
Мова: англійська
Аудіо-кодек: FLAC
Бітрейт: 795-986 кб/с
Джерело: iнтернет
Додаткова інформація:
2008 - Monochromes Philosophy
Дебютна робота української групи Somnolent! Повноформатний альбом став плодом тривалої роботи групи, що приймала участь у різних музичних фестивалях і своїми силами випустила в 2007 році концертний альбом " Live In Odessa ". Somnolent пропонує слухачеві подорож в похмурий світ funeral doom death, сплетений з в'язких рифів і протяжних партій соло- гітари. Це шлях через біль і розпач, довжиною в годину - майже стільки триває " Monochromes Philosophy "
2011 - Renaissance Unraveling
Другий повноформатний альбом "Renaissance Unraveling " показує творчість одеської групи Somnolent з зовсім іншого боку. Зберігаючи настрій дебютної роботи, музиканти зробили крен у бік post - metal, ще раз доводячи свій професіоналізм і творчу різнобічність. Відмінна якість запису і виконання доповнюють цікаві композиційні знахідки музикантів і ставлять Somnolent в один ряд з провідними групами, виконуючими post - metal. Рекомендується любителям творчості Cult Of Luna, Mouth Of The Architect і т.д.
2009 - Somnolent / Krobak(split-EP)
KROBAK (experimental/post-rock) and SOMNOLENT (art/funeral doom) are releasing split EP January, 31. An obvious idea of working together is embodied in this 20-min long record, consisting of two exclusive tracks: KROBAK's Park Luny (the very first 2007' demo) and SOMNOLENT's Visible World Eraser, which is going to be released on band's second album in another version. Vynil concept can be traced in any detail, from sound effects to sleeve design. First pressing is limited to 50 hand-made copies! (discogs.com)


Золотий реліз (завантажене не впливає на рейтинг)
 Трекер:    Зареєстрований   

Завантажити / скачати українську музику



відео для новачків



 Зареєстрований:   2015-09-08 18:45
 Розмір:   921 MB 
 Оцінка музики:   10/10 (Голосів: 2)
   
kolpavel 
VIP


З нами з: 04.05.14
Востаннє: 09.12.16
Повідомлень: 1059

2015-09-08 19:33  
Ваш часовий пояс: GMT + 2 Години

Нова тема   Відповісти