Завантажити та скачати торренти українською


Тіна Кароль | Дискографія [3 альбоми, 1 Maxi сингл] (2006-2010) [APE] | Pop

Нові коментарі

Нова тема   Відповісти
Автор Повідомлення
plyrvt 
VIP


З нами з: 03.12.08
Востаннє: 03.12.16
Повідомлень: 398

2009-08-07 20:21  
Тіна Кароль | Дискографія [3 альбоми, 1 Maxi сингл] (2006-2010) [APE] | Pop



Стиль: Pop
Країна, місто: Україна, Івано-Франківськ
Сайти: Офіційний сайт
Видавець: LAVINA Music (1-2), Astra records (3-e)
Виконавці:
Тетяна Григорівна Ліберман
Альбоми:
2006 - Show Me Your Love


01 - Money Doesn't Metter - 3:55
02 - Russian Boy - 3:13
03 - Life Is Not Enough - 3:20
04 - Honey - 3:01
05 - Love Of My Life - 3:08
06 - Show Me Your Love - 2:56
07 - Silent Night ukrainian version - 2:11
08 - Honey (Fiesta Edit) - 3:21
09 - Money Doesn't Metter remake - 3:16
10 - Show Me Your Love REMIX radio edit - 3:35
11 - Show Me Your Love REMIX club edit - 5:20
12 - Выше Облаков - 3:17

Тривалість: 00:40:43
Мова: англійська (1-6, 8-11), українська (7), російська (12)
Видавець: LAVINA Music
EAC Log
Exact Audio Copy V0.99 prebeta 4 from 23. January 2008

Отчёт EAC об извлечении, выполненном 15. декабря 2008, 17:41

Tina Karol / Show Me Your Love

Дисковод: PIONEER DVD-RW DVR-112D Adapter: 1 ID: 0

Режим чтения : Достоверность
Использование точного потока : Да
Отключение кэша аудио : Да
Использование указателей C2 : Нет

Коррекция смещения при чтении : 48
Способность читать области Lead-in и Lead-out : Нет
Заполнение пропущенных сэмплов тишиной : Да
Удаление блоков с тишиной в начале и конце : Нет
При вычислениях CRC использовались нулевые сэмплы : Да
Интерфейс : Установленный внешний ASPI-интерфейс

Выходной формат : Внутренние WAV-операции
Формат сэмплов : 44.100 Гц; 16 бит; стерео

TOC извлечённого CD

Трек | Старт | Длительность | Начальный сектор | Конечный сектор
---------------------------------------------------------------------
1 | 0:00.00 | 3:54.52 | 0 | 17601
2 | 3:54.52 | 3:13.08 | 17602 | 32084
3 | 7:07.60 | 3:20.11 | 32085 | 47095
4 | 10:27.71 | 3:01.19 | 47096 | 60689
5 | 13:29.15 | 3:08.14 | 60690 | 74803
6 | 16:37.29 | 2:56.28 | 74804 | 88031
7 | 19:33.57 | 2:10.49 | 88032 | 97830
8 | 21:44.31 | 3:20.65 | 97831 | 112895
9 | 25:05.21 | 3:16.22 | 112896 | 127617
10 | 28:21.43 | 3:34.43 | 127618 | 143710
11 | 31:56.11 | 5:20.27 | 143711 | 167737
12 | 37:16.38 | 3:17.25 | 167738 | 182537
13 | 43:05.63 | 11:59.38 | 193938 | 247900

Характеристики диапазона извлечения и сообщения об ошибках

Выбранный диапазон

Имя файла D:\Tina Karol - Show Me Your Love.wav

Пиковый уровень 98.8 %
Качество диапазона 100.0 %
CRC копии D30BC228
Копирование... OK

Ошибок не произошло

Конец отчёта
Audiochecker Log
AUDIOCHECKER v2.0 beta (build 457) - by Dester - [email protected]
~~~~~~~~~~~~~~~~~~~~~~~~~~~~~~~~~~
-=== НЕ РЕДАКТИРУЙТЕ ЭТОТ ФАЙЛ! ===-

Путь: ...\2006 - Show me your love

01 -=- 01 - Money Doesn't Metter.wav -=- CDDA (100%)
02 -=- 02 - Russian Boy.wav -=- CDDA (99%)
03 -=- 03 - Life Is Not Enough.wav -=- CDDA (100%)
04 -=- 04 - Honey.wav -=- CDDA (100%)
05 -=- 05 - Love Of My Life.wav -=- CDDA (99%)
06 -=- 06 - Show Me Your Love.wav -=- CDDA (100%)
07 -=- 07 - Silent Night ukrainian version.wav -=- CDDA (100%)
08 -=- 08 - Honey (Fiesta Edit).wav -=- CDDA (100%)
09 -=- 09 - Money Doesn't Metter remake.wav -=- CDDA (100%)
10 -=- 10 - Show Me Your Love REMIX radio edit.wav -=- CDDA (100%)
11 -=- 11 - Show Me Your Love REMIX club edit.wav -=- CDDA (100%)
12 -=- 12 - Выше Облаков.wav -=- CDDA (100%)

Сводка 99,83% CDDA

47648868
2006 - Ноченька (Maxi сингл)


01 - Ноченька - 3:10
02 - Выше облаков - 3:19
03 - Намалюю тобi - 3:07
04 - Пупсик - 3:17
05 - Ты отпусти - 3:45
06 - Выше облаков (remix) - 3:42
07 - Ноченька (караоке) - 3:10
08 - Выше облаков (караоке) - 3:20
09 - Пупсик (караоке) - 3:15

Тривалість: 00:30:05
Мова: українська (03), російська (01-02, 04-09)
Видавець: LAVINA Music
EAC Log
Exact Audio Copy V0.99 prebeta 4 from 23. January 2008

Отчёт EAC об извлечении, выполненном 16. мая 2008, 18:39

Тина Кароль / Ноченька

Дисковод: HL-DT-STDVD-ROM GDR8161B Adapter: 0 ID: 0

Режим чтения : Достоверность
Использование точного потока : Да
Отключение кэша аудио : Да
Использование указателей C2 : Нет

Коррекция смещения при чтении : 102
Способность читать области Lead-in и Lead-out : Нет
Заполнение пропущенных сэмплов тишиной : Да
Удаление блоков с тишиной в начале и конце : Нет
При вычислениях CRC использовались нулевые сэмплы : Да
Интерфейс : Установленный внешний ASPI-интерфейс

Выходной формат : Внутренние WAV-операции
Формат сэмплов : 44.100 Гц; 16 бит; стерео

TOC извлечённого CD

Трек | Старт | Длительность | Начальный сектор | Конечный сектор
---------------------------------------------------------------------
1 | 0:00.00 | 3:09.40 | 0 | 14214
2 | 3:09.40 | 3:19.06 | 14215 | 29145
3 | 6:28.46 | 3:06.42 | 29146 | 43137
4 | 9:35.13 | 3:17.17 | 43138 | 57929
5 | 12:52.30 | 3:45.02 | 57930 | 74806
6 | 16:37.32 | 3:42.08 | 74807 | 91464
7 | 20:19.40 | 3:09.64 | 91465 | 105703
8 | 23:29.29 | 3:20.32 | 105704 | 120735
9 | 26:49.61 | 3:15.15 | 120736 | 135375
10 | 32:37.01 | 31:39.41 | 146776 | 289241

Характеристики диапазона извлечения и сообщения об ошибках

Выбранный диапазон (Секторы 0-135375)

Имя файла E:\flac\Тина Кароль\Ноченька\Тина Кароль - Ноченька.wav

Пиковый уровень 98.8 %
Качество диапазона 100.0 %
CRC копии 86F694B1
Копирование... OK

Ошибок не произошло

Конец отчёта
Audiochecker Log
AUDIOCHECKER v2.0 beta (build 457) - by Dester - [email protected]
~~~~~~~~~~~~~~~~~~~~~~~~~~~~~~~~~~
-=== НЕ РЕДАКТИРУЙТЕ ЭТОТ ФАЙЛ! ===-

Путь: ...\2006 - Ноченька

01 -=- 01 - Ноченька.wav -=- CDDA (99%)
02 -=- 02 - Выше облаков.wav -=- CDDA (100%)
03 -=- 03 - Намалюю тобi.wav -=- CDDA (100%)
04 -=- 04 - Пупсик.wav -=- CDDA (100%)
05 -=- 05 - Ты отпусти.wav -=- CDDA (99%)
06 -=- 06 - Выше облаков (remix).wav -=- CDDA (100%)
07 -=- 07 - Ноченька (караоке).wav -=- CDDA (100%)
08 -=- 08 - Выше облаков (караоке).wav -=- CDDA (100%)
09 -=- 09 - Пупсик (караоке).wav -=- CDDA (100%)

Сводка 99,78% CDDA

57108452
2007 - Полюс притяжения


01 - Полюс притяжения - 3:37
02 - Белое небо - 3:01
03 - Люблю его - 3:48
04 - Ни к чему - 2:53
05 - Ключик - 3:31
06 - У неба попросим - 3:10
07 - Время как вода - 3:10
08 - Loosing my way - 4:37
09 - Come on - 3:18
10 - Время как вода (Remake) - 3:10

Тривалість: 00:34:16
Мова: російська (01-07, 10), англійська (08-09)
Видавець: Astra records
EAC Log
Exact Audio Copy V0.99 prebeta 4 from 23. January 2008

Отчёт EAC об извлечении, выполненном 26. марта 2009, 8:42

Тина Кароль / Полюс притяжения

Дисковод: HL-DT-STDVD-ROM GDR8161B Adapter: 0 ID: 0

Режим чтения : Достоверность
Использование точного потока : Да
Отключение кэша аудио : Да
Использование указателей C2 : Нет

Коррекция смещения при чтении : 102
Способность читать области Lead-in и Lead-out : Нет
Заполнение пропущенных сэмплов тишиной : Да
Удаление блоков с тишиной в начале и конце : Нет
При вычислениях CRC использовались нулевые сэмплы : Да
Интерфейс : Установленный внешний ASPI-интерфейс

Выходной формат : Внутренние WAV-операции
Формат сэмплов : 44.100 Гц; 16 бит; стерео

TOC извлечённого CD

Трек | Старт | Длительность | Начальный сектор | Конечный сектор
---------------------------------------------------------------------
1 | 0:00.00 | 3:36.60 | 0 | 16259
2 | 3:36.60 | 3:01.17 | 16260 | 29851
3 | 6:38.02 | 3:48.02 | 29852 | 46953
4 | 10:26.04 | 2:53.36 | 46954 | 59964
5 | 13:19.40 | 3:31.33 | 59965 | 75822
6 | 16:50.73 | 3:09.50 | 75823 | 90047
7 | 20:00.48 | 3:09.65 | 90048 | 104287
8 | 23:10.38 | 4:37.08 | 104288 | 125070
9 | 27:47.46 | 3:18.12 | 125071 | 139932
10 | 31:05.58 | 3:09.71 | 139933 | 154178
11 | 36:47.54 | 18:00.05 | 165579 | 246583

Характеристики диапазона извлечения и сообщения об ошибках

Выбранный диапазон (Секторы 0-154178)

Имя файла E:\Lossless\Тина Кароль\Тина Кароль - Полюс притяжения\Тина Кароль - Полюс притяжения.wav

Пиковый уровень 100.0 %
Качество диапазона 100.0 %
CRC копии 77DAB530
Копирование... OK

Ошибок не произошло

AccurateRip: сводка

Трек 1 нет в базе данных
Трек 2 нет в базе данных
Трек 3 нет в базе данных
Трек 4 нет в базе данных
Трек 5 нет в базе данных
Трек 6 нет в базе данных
Трек 7 нет в базе данных
Трек 8 нет в базе данных
Трек 9 нет в базе данных
Трек 10 нет в базе данных

Ни одного трека нет в базе AccurateRip

Конец отчёта
Audiochecker Log
AUDIOCHECKER v2.0 beta (build 457) - by Dester - [email protected]
~~~~~~~~~~~~~~~~~~~~~~~~~~~~~~~~~~
-=== НЕ РЕДАКТИРУЙТЕ ЭТОТ ФАЙЛ! ===-

Путь: ...\2007 - Полюс притяжения

01 -=- 01 - Полюс притяжения.wav -=- CDDA (100%)
02 -=- 02 - Белое небо.wav -=- CDDA (100%)
03 -=- 03 - Люблю его.wav -=- CDDA (99%)
04 -=- 04 - Ни к чему.wav -=- CDDA (100%)
05 -=- 05 - Ключик.wav -=- CDDA (100%)
06 -=- 06 - У неба попросим.wav -=- CDDA (100%)
07 -=- 07 - Время как вода.wav -=- CDDA (100%)
08 -=- 08 - Loosing my may.wav -=- CDDA (100%)
09 -=- 09 - Come on.wav -=- CDDA (99%)
10 -=- 10 - Время как вода (Remake).wav -=- CDDA (100%)

Сводка 99,80% CDDA

104193780
2010 - 9 жизней


01 - Зачем я знаю - 4:04
02 - Никогда - 3:36
03 - 9 Жизней (Микроволновка) - 3:23
04 - Я не беру трубку - 3:33
05 - Не бойся, мальчик - 2:56
06 - Переживем измены - 3:16
07 - РадиоBaby - 3:33
08 - Люболь - 4:01
09 - Шиншилла - 2:51
10 - Я скажу 'Да' - 3:41
11 - Шукай мене - 3:02
12 - Не дощ - 3:19
13 - Ніжно - 2:47
Тривалість: 00:44:02
Мова: російська (01-10), українська (11-13)
Видавець: Astra records
EAC Log
Exact Audio Copy V0.99 prebeta 5 from 4. May 2009

Отчёт EAC об извлечении, выполненном 28. декабря 2010, 13:49

Тина Кароль / 9 жизней

Дисковод: Optiarc DVD RW AD-7173S Adapter: 4 ID: 0

Режим чтения : Достоверность
Использование точного потока : Да
Отключение кэша аудио : Да
Использование указателей C2 : Нет

Коррекция смещения при чтении : 48
Способность читать области Lead-in и Lead-out : Нет
Заполнение пропущенных сэмплов тишиной : Да
Удаление блоков с тишиной в начале и конце : Нет
При вычислениях CRC использовались нулевые сэмплы : Да
Интерфейс : Встроенный Win32-интерфейс для Win NT/2000

Выходной формат : Пользовательский кодировщик
Выбранный битрейт : 1024 kBit/s
Качество : Высокий
Добавление ID3-тэга : Нет
Утилита сжатия : C:\Program Files (x86)\Exact Audio Copy\flac.exe
Дополнительные параметры : -6 -V -T "ARTIST=%a" -T "TITLE=%t" -T "ALBUM=%g" -T "DATE=%y" -T "TRACKNUMBER=%n" -T "GENRE=%m" -T "COMMENT=%e" %s -o %d

TOC извлечённого CD

Трек | Старт | Длительность | Начальный сектор | Конечный сектор
---------------------------------------------------------------------
1 | 0:00.00 | 4:04.10 | 0 | 18309
2 | 4:04.10 | 3:35.48 | 18310 | 34482
3 | 7:39.58 | 3:22.64 | 34483 | 49696
4 | 11:02.47 | 3:32.64 | 49697 | 65660
5 | 14:35.36 | 2:56.05 | 65661 | 78865
6 | 17:31.41 | 3:16.03 | 78866 | 93568
7 | 20:47.44 | 3:33.31 | 93569 | 109574
8 | 24:21.00 | 4:01.19 | 109575 | 127668
9 | 28:22.19 | 2:51.28 | 127669 | 140521
10 | 31:13.47 | 3:40.71 | 140522 | 157092
11 | 34:54.43 | 3:02.34 | 157093 | 170776
12 | 37:57.02 | 3:18.39 | 170777 | 185665
13 | 41:15.41 | 2:46.56 | 185666 | 198171

Характеристики диапазона извлечения и сообщения об ошибках

Выбранный диапазон

Имя файла G:\Тина Кароль - 9 жизней.wav

Пиковый уровень 100.0 %
Качество диапазона 100.0 %
CRC теста 2CB68D53
CRC копии 2CB68D53
Копирование... OK

Ошибок не произошло

AccurateRip: сводка

Трек 1 нет в базе данных
Трек 2 нет в базе данных
Трек 3 нет в базе данных
Трек 4 нет в базе данных
Трек 5 нет в базе данных
Трек 6 нет в базе данных
Трек 7 нет в базе данных
Трек 8 нет в базе данных
Трек 9 нет в базе данных
Трек 10 нет в базе данных
Трек 11 нет в базе данных
Трек 12 нет в базе данных
Трек 13 нет в базе данных

Ни одного трека нет в базе AccurateRip

Конец отчёта
Audiochecker Log
AUDIOCHECKER v2.0 beta (build 457) - by Dester - [email protected]
~~~~~~~~~~~~~~~~~~~~~~~~~~~~~~~~~~
-=== DO NOT EDIT THIS FILE! ===-

Path: ...\2010 - 9 жизней

01 -=- 01 - Зачем я знаю.wav -=- CDDA (100%)
02 -=- 02 - Никогда.wav -=- CDDA (100%)
03 -=- 03 - 9 Жизней (Микроволновка).wav -=- CDDA (99%)
04 -=- 04 - Я не беру трубку.wav -=- CDDA (100%)
05 -=- 05 - Не бойся, мальчик.wav -=- CDDA (100%)
06 -=- 06 - Переживем измены.wav -=- CDDA (100%)
07 -=- 07 - РадиоBaby.wav -=- CDDA (99%)
08 -=- 08 - Люболь.wav -=- CDDA (100%)
09 -=- 09 - Шиншилла.wav -=- CDDA (99%)
10 -=- 10 - Я скажу 'Да'.wav -=- CDDA (100%)
11 -=- 11 - Шукай мене.wav -=- CDDA (100%)
12 -=- 12 - Не дощ.wav -=- CDDA (100%)
13 -=- 13 - Ніжно.wav -=- CDDA (100%)

Summary 99,77% CDDA

42234868
Тривалість: 02:26:57
Мова: російська (1-4), українська (1-2,4), англійська (1, 3)
Аудіо-кодек: APE, FLAC
Ріп: image+*.cue (EAC Log, audiochecker log)
EAC: Secure + Accurate stream + disable cache/C2 + Read offset correction
Бітрейт: lossless (~ 894-967 кбіт/с)
Додаткова інформація

Учасниця і лауреатка багатьох конкурсів і фестивалів: «Золоті трембіти», «Юні зірки Прикарпаття» (1997), «Таланти твої, Україно» (1998), «Різдвяні зустрічі у Братів Блюзу», «Чорноморські ігри», «Золотий тік», «Під однією зіркою» (1999), «Едельвейс», «Сім культур» (2001), де Тіна представляла Ізраїль, «Перший всеукраїнський конкурс артистів естради» (2002), «Нова хвиля» (Юрмала-2005).

Актриса театру і шоу-вистав: роль Маргарет у мюзиклі «Екватор» (2003), Марфи у спектаклі «Духів день» (2004), Ассоль в однойменному мюзиклі.

11 березня 2006 року Тіна Кароль перемогла у національному відбірковому конкурсі «Ти — зірка!» і представляла Україну на «Євробаченні-2006» у Греції, де посіла сьоме місце.

У січні 2009 року отримала звання «Заслужена артистка України»
ОНОВЛЕНО 09.07.2011

Додав альбом "2010 - 9 жизней", джерело dm-71 (rutracker.org)


Золотий реліз (завантажене не впливає на рейтинг)
 Трекер:    Зареєстрований   

Завантажити / скачати українську музику



відео для новачків



 Зареєстрований:   2011-07-09 00:42
 Розмір:   1022 MB 
 Оцінка музики:   6.6/10 (Голосів: 10)
   
Skiff 
музика
музика


З нами з: 12.11.07
Востаннє: 05.12.16
Повідомлень: 3051

2009-08-07 21:49  
На офіційному сайті написано:
Show me your love(2006)
Ноченька(2007)
Полюс притяжения(2008)

Роки чомусь відмінні.

plyrvt 
VIP


З нами з: 03.12.08
Востаннє: 03.12.16
Повідомлень: 398

2009-08-07 22:09  
Skiff Роки чомусь відмінні.
То претензії до того хто робив їй сайт.
"Ноченька" вийшов на LAVINA Music 21.12.2006, цифра 2006 зазначена на обкладинці, а також на сайті LAVINA

"Полюс притяжения" вийшов в 2007, про що зазначено на обкладинці (сайт Астра не працює щоб дати лінк):
ось скан

Skiff 
музика
музика


З нами з: 12.11.07
Востаннє: 05.12.16
Повідомлень: 3051

2009-08-07 22:29  
plyrvt. Вірити після цього офіційним сайтам... Happy
Umka підверджує вказану в релізі інформацію. Дякую за відповідь.
ПС: три альбоми і лише дві пісні українською. Сумно.

plyrvt 
VIP


З нами з: 03.12.08
Востаннє: 03.12.16
Повідомлень: 398

2009-08-07 22:36  
Цитата:
Вірити після цього офіційним сайтам...

Я офіційним сайтам музикантів вірю в 10 разів менше ніж вікіпедії. Бо знаю як вони робляться.
Якщо в вікіпедії як на паркані - може писати хто завгодно, то бодай читачі можуть перевіряти і впливати на інформацію (через модераторів). А на офсайтах ніхто не перевіряє інфо і не може на неї впливати.
Аналогічна ситуація і з офсайтом Пономарьова, другий альбом він випустив 22.12.1997 (провели прес-конференцію з презентацією), але в продакшен у видавця альбом пішов лише в січні і на диску зазначено 1998 рік.
Цитата:
і лише дві пісні українською. Сумно.

зате «Заслужена артистка України»

Nomad 
VIP


З нами з: 17.03.08
Востаннє: 08.02.12
Повідомлень: 513

2009-12-16 15:41  
що цей реліз робить у розділі "українська поп музика"??? це ж ганьба, майже всі пісні каціпською!
plyrvt 
VIP


З нами з: 03.12.08
Востаннє: 03.12.16
Повідомлень: 398

2010-07-20 22:26  
Одна українська пісня є Wide grin
shtoz 
Поважний учасник


З нами з: 12.07.10
Востаннє: 21.11.16
Повідомлень: 153

2010-07-21 10:10  
Цитата:
що цей реліз робить у розділі "українська поп музика"??? це ж ганьба, майже всі пісні каціпською!
і що з того? А якби на суахілі то б не було ганьбою?))
plyrvt 
VIP


З нами з: 03.12.08
Востаннє: 03.12.16
Повідомлень: 398

2010-07-21 10:42  
http://www.president.gov.ua/documents/8840.html

Президент України Віктор ЮЩЕНКО
16 січня 2009 року

Присвоїти почесні звання:

«НАРОДНИЙ АРТИСТ УКРАЇНИ»

АБАЗОПУЛУ Володимиру Костянтиновичу - артистові державного підприємства «Національна кіностудія художніх фільмів імені Олександра Довженка», м.Київ
БУРМАЦІ Марії Вікторівні - співачці, м.Київ
МАГЕРІ Сергію Ігоровичу - солістові опери Національного академічного театру опери та балету України імені Т.Г.Шевченка, м.Київ
СУМСЬКІЙ Ользі Вячеславівні - артистці театру і кіно, м.Київ
СТУПЦІ Остапу Богдановичу - артистові Національного академічного драматичного театру імені Івана Франка, м.Київ

«ЗАСЛУЖЕНИЙ АРТИСТ УКРАЇНИ»

ВАРИЧ Олені Борисівні - солістці ансамблю «Росава» Черкаської обласної філармонії
КОЗЛОВСЬКОМУ Віталію Віталійовичу - співакові, м.Київ
ЛІБЕРМАН Тетяні Георгіївні - співачці, м.Київ (Тіні Кароль)
РУБЛЬОВІЙ Ружені Анатоліївні - артистці-вокалістці Херсонського обласного академічного музично-драматичного театру імені М.Куліша
ШПАК Марті Дмитрівні - співачці, м.Київ

Nomad 
VIP


З нами з: 17.03.08
Востаннє: 08.02.12
Повідомлень: 513

2010-07-21 13:44  
shtoz написано:
і що з того? А якби на суахілі то б не було ганьбою?))

було б. все, що не відповідає дійсності є ганьбою )))

Skiff 
музика
музика


З нами з: 12.11.07
Востаннє: 05.12.16
Повідомлень: 3051

2010-07-21 14:16  
plyrvt написано:
ЛІБЕРМАН Тетяні Георгіївні - співачці, м.Київ (Тіні Кароль)
plyrvt написано:

Виконавці:

Тетяна Григорівна Ліберман

Хто помилився?

ssTAss 
Модератор музики


З нами з: 05.07.08
Востаннє: 05.12.16
Повідомлень: 10941

2010-07-21 15:24  
Skiff написано:
Хто помилився?

президент
Цитата:
Тина Кароль

Tina Karol, Татьяна Григорьевна Либерман

Украинская эстрадная певица.
(настоящее имя и фамилия — Татьяна Григорьевна Либерман).
Родилась 25 января 1985 года в пгт. Оротукан Ягоднинского района Магаданской области.
Отец — Григорий Самойлович Либерман. Инженер. Главный конструктор в строительной компании.
Мать — Светлана Андреевна Либерман. Инженер, но сейчас работает в пенсионном фонде Украины.

plyrvt 
VIP


З нами з: 03.12.08
Востаннє: 03.12.16
Повідомлень: 398

2011-07-09 00:44  
Додав альбом "2010 - 9 жизней", джерело dm-71 (rutracker.org)
Ваш часовий пояс: GMT + 2 Години

Нова тема   Відповісти