Завантажити та скачати торренти українською


Щоденник принцеси 2: Королівські заручини / The Princess Diaries 2: Royal Engagement (2004) Ukr/Eng | Sub Eng

Нові коментарі

Нова тема   Відповісти
Автор Повідомлення
Anonymous 







2015-09-06 10:43  
Щоденник принцеси 2: Королівські заручини / The Princess Diaries 2: Royal Engagement (2004) Ukr/Eng | Sub Eng



Жанр: мелодрама, комедія, сімейний
Країна: США



Кінокомпанія: BrownHouse Productions, Walt Disney Pictures
Режисер: Ґеррі Маршалл / Garry Marshall
Актори: Енн Гетевей / Anne Hathaway, Джулі Ендрюс / Julie Andrews, Гектор Елізондо / Hector Elizondo, Джон Ріс-Девіс / John Rhys-Davies, Гізер Матараццо / Heather Matarazzo, Кріс Пайн / Chris Pine, Каллум Блу / Callum Blue, Керолайн Гудолл / Caroline Goodall, Джоел МакКрері / Joel McCrary, Ларрі Міллер / Larry Miller, Шон О’Брайан / Sean O'Bryan та інші

Сюжет:
Романтична комедія від режисера "Красуні / Pretty Woman" та "За бортом / Overboard". Цього разу Ґеррі Маршалл узявся за продовження суперуспішної молодіжної комедії 2001 року "Щоденники принцеси". І головну героїню - принцесу вигаданої країни Женовії - чекають нові випробування на шляху до простого аристократичного щастя. Незабаром їй доведеться стати королевою, але перед коронацією на героїню чекають непрості випробування, серед яких вибір нареченого та іспит на уміння мудро правити державою...


Рейтинг MPAA: G - нема вікових обмежень
Вікова категорія: 6+

Тривалість: 01:53:13
Якість:
Відео:
кодек: build 65
розмір кадру: 704 х 400
бітрейт: 1973 кбіт/с

Аудіо # 1:
мова: українська
переклад: двоголосий закадровий - Студія 1+1
кодек: 2.0
бітрейт: 192 кбіт/с
Інформація про озвучення
Переклад: Ганна Ведмідь
Літературний редактор: Оксана Батюк
Звукорежисер: Олена Мойжес
Режисер: Сергій Гаврилюк
Ролі озвучили: Ніна Касторф і Олександр Завальський
Аудіо # 2:
мова: англійська
переклад: оригінал
кодек: 5.1
бітрейт: 384 кбіт/с

Субтитри #1:
мова: українська (форсовані, на кілька фраз наприкінці титрів)
тип: програмні (м'які)
формат: *.srt

Субтитри #2:
мова: англійська
тип: програмні (м'які)
формат: *.srt
MediaInfo
Код:
General
Complete name               : The Princess Diaries 2 Royal Engagement (2004) [Ukr,Eng] [Hurtom&HQClub].avi
Format                      : AVI
Format/Info                 : Audio Video Interleave
Format profile              : OpenDML
File size                   : 2.03 GiB
Duration                    : 1h 53mn
Overall bit rate            : 2 568 Kbps
Movie name                  : Щоденники принцеси 2: Королівські заручини / The Princess Diaries 2: Royal Engagement (2004)
Director                    : igor911 & Joker
Genre                       : драма, комедія, сімейний
Writing application         : VirtualDubModRus 1.5.10.2 (build 2540/release)
Copyright                   : Hurtom & HQClub
Comment                     : 05.09.2015

Video
ID                          : 0
Format                      : MPEG-4 Visual
Format profile              : Advanced [email protected]
Format settings, BVOP       : 1
Format settings, QPel       : No
Format settings, GMC        : No warppoints
Format settings, Matrix     : Custom
Codec ID                    :
Codec ID/Hint               :
Duration                    : 1h 53mn
Bit rate                    : 1 973 Kbps
Width                       : 704 pixels
Height                      : 400 pixels
Display aspect ratio        : 16:9
Frame rate                  : 23.976 fps
Color space                 : YUV
Chroma subsampling          : 4:2:0
Bit depth                   : 8 bits
Scan type                   : Progressive
Compression mode            : Lossy
Bits/(Pixel*Frame)          : 0.292
Stream size                 : 1.56 GiB (77%)
Writing library             : 65

Audio #1
ID                          : 1
Format                      : AC-3
Format/Info                 : Audio Coding 3
Mode extension              : CM (complete main)
Format settings, Endianness : Big
Codec ID                    : 2000
Duration                    : 1h 53mn
Bit rate mode               : Constant
Bit rate                    : 192 Kbps
Channel(s)                  : 2 channels
Channel positions           : Front: L R
Sampling rate               : 48.0 KHz
Compression mode            : Lossy
Stream size                 : 155 MiB (7%)
Alignment                   : Split accross interleaves
Interleave, duration        : 42 ms (1.00 video frame)
Interleave, preload duratio : 500 ms
Title                       : DVO [1+1]

Audio #2
ID                          : 2
Format                      : AC-3
Format/Info                 : Audio Coding 3
Mode extension              : CM (complete main)
Format settings, Endianness : Big
Codec ID                    : 2000
Duration                    : 1h 53mn
Bit rate mode               : Constant
Bit rate                    : 384 Kbps
Channel(s)                  : 6 channels
Channel positions           : Front: L C R, Side: L R, LFE
Sampling rate               : 48.0 KHz
Compression mode            : Lossy
Stream size                 : 311 MiB (15%)
Alignment                   : Split accross interleaves
Interleave, duration        : 42 ms (1.00 video frame)
Interleave, preload duratio : 500 ms
Title                       : Eng




Джерела та подяки: &
ріп відео - Joker (HQClub); українська доріжка - dbdeveloper, igor911 (синхронізація під ); фільмографія та інформація про озвучення - Віктор (всі - Гуртом).





ЗАЛИШАЙТЕСЬ ЯКОМОГА ДОВШЕ НА РОЗДАЧІ!

СКАЧАВ САМ - ДАЙ СКАЧАТИ ІНШИМ


Срібний реліз (на рейтинг впливає 50% завантаженого)
 Трекер:    Зареєстрований   

Завантажити / скачати фільм українською



відео для новачків



 Зареєстрований:   2015-09-06 10:43
 Розмір:   2.03 GB 
 Оцінка фільму:   5.2/10 (Голосів: 20)
   
Ваш часовий пояс: GMT + 2 Години

Нова тема   Відповісти