Завантажити та скачати торренти українською


Щоденники принцеси. Дилогія / The Princess Diaries. Dilogy (2001-2004) 720p Ukr/Eng | Sub Eng

Нові коментарі

Нова тема   Відповісти
Автор Повідомлення
Anonymous 







2015-09-06 09:56  
Щоденники принцеси. Дилогія / The Princess Diaries. Dilogy (2001-2004) 720p Ukr/Eng | Sub Eng

Щоденники принцеси / The Princess Diaries (2001) 720p Ukr/Eng | Sub Eng

Щоденники принцеси / The Princess Diaries (2001) 720p Ukr/Eng | Sub Eng



Жанр: драма, комедія, сімейний
Країна: США



Кінокомпанія: Walt Disney Pictures, BrownHouse Productions, Bottom of the Ninth Productions
Режисер: Ґеррі Маршалл / Garry Marshall
Актори: Енн Гетевей / Anne Hathaway, Джулі Ендрюс / Julie Andrews, Гектор Елізондо / Hector Elizondo, Гізер Матараццо / Heather Matarazzo, Менді Мур / Mandy Moore, Керолайн Гудолл / Caroline Goodall, Роберт Шварцман / Robert Schwartzman, Ерік фон Деттен / Erik von Detten, Патрік Джон Флюгер / Patrick John Flueger, Шон О’Брайан / Sean O'Bryan та інші

Сюжет:
П'ятнадцятирічна Мія живе в Сан-Франциско і веде звичайне для американського підлітка життя. Але після смерті її батька Мія дізнається, що він був принцом однієї європейської країни, а вона тепер єдина спадкоємниця трону. Її бабуся, королева, прибуває до Каліфорнії, щоб повідомити Мії про її походження і з'ясувати, чи прийме вона трон. Вона хоче зробити з Мії справжню принцесу, навчивши етикету і манерам.
До свого шістнадцятого дня народження дівчина повинна вирішити, їхати їй до Європи, щоб керувати країною або залишитися з матір'ю в Сан-Франциско і жити звичайним життям підлітка ...


Рейтинг MPAA: G - нема вікових обмежень
Вікова категорія: 6+

Тривалість: 01:55:28
Якість: 720p [EbP]
Відео:
кодек:
розмір кадру: 1280 х 720
бітрейт: 8395 кбіт/с [crf=16]

Аудіо # 1:
мова: українська
переклад: багатоголосий закадровий
кодек: 2.0
бітрейт: 192 кбіт/с

Аудіо # 2:
мова: англійська
переклад: оригінал
кодек: 5.1
бітрейт: 1509 кбіт/с

Субтитри:
мова: англійська
тип: програмні (м'які)
формат: *.srt

Збережено оригінальні розділи, як на Blu-ray.
MediaInfo
Код:
General
Unique ID                   : 184165627094279903995338714775808633931 (0x8A8D0274CD92EBD5AFCA8F878B4BEC4B)
Complete name               : The Princess Diaries (2001) [Ukr,Eng sub.Eng] 720p [Hurtom].mkv
Format                      : Matroska
Format version              : Version 4 / Version 2
File size                   : 8.31 GiB
Duration                    : 1h 55mn
Overall bit rate            : 10.3 Mbps
Movie name                  : Щоденники принцеси / The Princess Diaries (2001) [Ukr,Eng sub.Eng] 720p [Hurtom]
Encoded date                : UTC 2015-09-04 18:39:15
Writing application         : mkvmerge v8.3.0 ('Over the Horizon') 64bit
Writing library             : libebml v1.3.1 + libmatroska v1.4.2
Attachements                : cover.jpg
DURATION                    : 01:55:28.182000000
NUMBER_OF_FRAMES            : 649517
NUMBER_OF_BYTES             : 1306828204
_STATISTICS_WRITING_APP     : mkvmerge v8.3.0 ('Over the Horizon') 64bit
_STATISTICS_WRITING_DATE_UT : 2015-09-04 18:39:15
_STATISTICS_TAGS            : BPS DURATION NUMBER_OF_FRAMES NUMBER_OF_BYTES

Video
ID                          : 1
Format                      : AVC
Format/Info                 : Advanced Video Codec
Format profile              : [email protected]
Format settings, CABAC      : Yes
Format settings, ReFrames   : 9 frames
Codec ID                    : V_MPEG4/ISO/AVC
Duration                    : 1h 55mn
Bit rate                    : 8 395 Kbps
Width                       : 1 280 pixels
Height                      : 720 pixels
Display aspect ratio        : 16:9
Frame rate mode             : Constant
Frame rate                  : 23.976 fps
Color space                 : YUV
Chroma subsampling          : 4:2:0
Bit depth                   : 8 bits
Scan type                   : Progressive
Bits/(Pixel*Frame)          : 0.380
Stream size                 : 6.77 GiB (81%)
Title                       : Щоденники принцеси / The Princess Diaries / Как стать принцессой (2001) 720p [EbP]
Writing library             : core 125 r2208 d9d2288
Encoding settings           : cabac=1 / ref=9 / deblock=1:-3:-3 / analyse=0x3:0x113 / me=tesa / subme=11 / psy=1 / psy_rd=1.05:0.00 / mixed_ref=1 / me_range=16 / chroma_me=1 / trellis=2 / 8x8dct=1 / cqm=0 / deadzone=21,11 / fast_pskip=0 / chroma_qp_offset=-2 / threads=12 / lookahead_threads=2 / sliced_threads=0 / nr=0 / decimate=0 / interlaced=0 / bluray_compat=0 / constrained_intra=0 / bframes=11 / b_pyramid=2 / b_adapt=2 / b_bias=0 / direct=3 / weightb=1 / open_gop=0 / weightp=2 / keyint=250 / keyint_min=23 / scenecut=40 / intra_refresh=0 / rc=crf / mbtree=0 / crf=16.0 / qcomp=0.60 / qpmin=0 / qpmax=69 / qpstep=4 / ip_ratio=1.40 / pb_ratio=1.30 / aq=1:0.60
Language                    : English
Default                     : Yes
Forced                      : No
Color range                 : Limited
Matrix coefficients         : BT.709
DURATION                    : 01:55:28.130000000
NUMBER_OF_FRAMES            : 166109
NUMBER_OF_BYTES             : 7445216155
_STATISTICS_WRITING_APP     : mkvmerge v8.3.0 ('Over the Horizon') 64bit
_STATISTICS_WRITING_DATE_UT : 2015-09-04 18:39:15
_STATISTICS_TAGS            : BPS DURATION NUMBER_OF_FRAMES NUMBER_OF_BYTES

Audio #1
ID                          : 2
Format                      : AC-3
Format/Info                 : Audio Coding 3
Mode extension              : CM (complete main)
Format settings, Endianness : Big
Codec ID                    : A_AC3
Duration                    : 1h 55mn
Bit rate mode               : Constant
Bit rate                    : 192 Kbps
Channel(s)                  : 2 channels
Channel positions           : Front: L R
Sampling rate               : 48.0 KHz
Compression mode            : Lossy
Stream size                 : 159 MiB (2%)
Title                       : MVO [Novyj] 2.0 192 kbps [Hurtom-Arsenfpu]
Language                    : Ukrainian
Default                     : Yes
Forced                      : No

Audio #2
ID                          : 3
Format                      :
Format/Info                 : Digital Theater Systems
Mode                        : 16
Format settings, Endianness : Big
Codec ID                    : A_DTS
Duration                    : 1h 55mn
Bit rate mode               : Constant
Bit rate                    : 1 509 Kbps
Channel(s)                  : 6 channels
Channel positions           : Front: L C R, Side: L R, LFE
Sampling rate               : 48.0 KHz
Bit depth                   : 24 bits
Compression mode            : Lossy
Delay relative to video     : 11ms
Stream size                 : 1.22 GiB (15%)
Title                       : Original 5.1 1509 kbps
Language                    : English
Default                     : No
Forced                      : No

Text
ID                          : 4
Format                      : UTF-8
Codec ID                    : S_TEXT/UTF8
Codec ID/Info               : UTF-8 Plain Text
Title                       : English
Language                    : English
Default                     : No
Forced                      : No

Menu
00:00:00.000                : en:00:00:00.000
00:03:49.062                : en:00:03:49.062
00:08:40.645                : en:00:08:40.645
00:10:06.856                : en:00:10:06.856
00:16:14.765                : en:00:16:14.765
00:21:56.565                : en:00:21:56.565
00:24:38.060                : en:00:24:38.060
00:28:09.646                : en:00:28:09.646
00:31:31.640                : en:00:31:31.640
00:32:20.105                : en:00:32:20.105
00:33:20.415                : en:00:33:20.415
00:36:06.289                : en:00:36:06.289
00:40:16.873                : en:00:40:16.873
00:45:33.898                : en:00:45:33.898
00:47:11.996                : en:00:47:11.996
00:53:30.874                : en:00:53:30.874
00:59:11.465                : en:00:59:11.465
01:06:48.171                : en:01:06:48.171
01:11:02.258                : en:01:11:02.258
01:17:58.632                : en:01:17:58.632
01:23:51.026                : en:01:23:51.026
01:29:12.472                : en:01:29:12.472
01:32:57.489                : en:01:32:57.489
01:35:30.642                : en:01:35:30.642
01:40:36.072                : en:01:40:36.072
01:45:36.121                : en:01:45:36.121
01:49:33.150                : en:01:49:33.150

Щоденник принцеси 2: Королівські заручини / The Princess Diaries 2: Royal Engagement (2004) 720p Ukr/Eng | Sub Eng

Щоденник принцеси 2: Королівські заручини / The Princess Diaries 2: Royal Engagement (2004) 720p Ukr/Eng | Sub Eng



Жанр: мелодрама, комедія, сімейний
Країна: США



Кінокомпанія: BrownHouse Productions, Walt Disney Pictures
Режисер: Ґеррі Маршалл / Garry Marshall
Актори: Енн Гетевей / Anne Hathaway, Джулі Ендрюс / Julie Andrews, Гектор Елізондо / Hector Elizondo, Джон Ріс-Девіс / John Rhys-Davies, Гізер Матараццо / Heather Matarazzo, Кріс Пайн / Chris Pine, Каллум Блу / Callum Blue, Керолайн Гудолл / Caroline Goodall, Джоел МакКрері / Joel McCrary, Ларрі Міллер / Larry Miller, Шон О’Брайан / Sean O'Bryan та інші

Сюжет:
Романтична комедія від режисера "Красуні / Pretty Woman" та "За бортом / Overboard". Цього разу Ґеррі Маршалл узявся за продовження суперуспішної молодіжної комедії 2001 року "Щоденники принцеси". І головну героїню - принцесу вигаданої країни Женовії - чекають нові випробування на шляху до простого аристократичного щастя. Незабаром їй доведеться стати королевою, але перед коронацією на героїню чекають непрості випробування, серед яких вибір нареченого та іспит на уміння мудро правити державою...


Рейтинг MPAA: G - нема вікових обмежень
Вікова категорія: 6+

Тривалість: 01:53:13
Якість: 720p [EbP]
Відео:
кодек:
розмір кадру: 1280 х 720
бітрейт: 8145 кбіт/с [crf=16]

Аудіо # 1:
мова: українська
переклад: двоголосий закадровий - Студія 1+1
кодек: 2.0
бітрейт: 192 кбіт/с
Інформація про озвучення
Переклад: Ганна Ведмідь
Літературний редактор: Оксана Батюк
Звукорежисер: Олена Мойжес
Режисер: Сергій Гаврилюк
Ролі озвучили: Ніна Касторф і Олександр Завальський
Аудіо # 2:
мова: англійська
переклад: оригінал
кодек: 5.1
бітрейт: 1509 кбіт/с

Субтитри #1:
мова: українська (форсовані, на кілька фраз наприкінці титрів)
тип: програмні (м'які)
формат: *.srt

Субтитри #2:
мова: англійська
тип: програмні (м'які)
формат: *.srt

Збережено оригінальні розділи, як на Blu-ray.
MediaInfo
Код:
General
Unique ID                   : 176586489535014667798585153654229819107 (0x84D9521FC0123E7AB50D9154ADFBDEE3)
Complete name               : The Princess Diaries 2 Royal Engagement (2004) [Ukr,Eng sub.Eng] 720p [Hurtom].mkv
Format                      : Matroska
Format version              : Version 4 / Version 2
File size                   : 7.94 GiB
Duration                    : 1h 53mn
Overall bit rate            : 10.0 Mbps
Movie name                  : Щоденники принцеси 2: Королівські заручини / The Princess Diaries 2: Royal Engagement (2004) [Ukr,Eng sub.Eng] 720p [Hurtom]
Encoded date                : UTC 2015-09-05 16:30:55
Writing application         : mkvmerge v8.3.0 ('Over the Horizon') 64bit
Writing library             : libebml v1.3.1 + libmatroska v1.4.2
Attachements                : cover.jpg
DURATION                    : 00:00:14.890000000
NUMBER_OF_FRAMES            : 5
NUMBER_OF_BYTES             : 457
_STATISTICS_WRITING_APP     : mkvmerge v8.3.0 ('Over the Horizon') 64bit
_STATISTICS_WRITING_DATE_UT : 2015-09-05 16:30:55
_STATISTICS_TAGS            : BPS DURATION NUMBER_OF_FRAMES NUMBER_OF_BYTES

Video
ID                          : 1
Format                      : AVC
Format/Info                 : Advanced Video Codec
Format profile              : [email protected]
Format settings, CABAC      : Yes
Format settings, ReFrames   : 9 frames
Codec ID                    : V_MPEG4/ISO/AVC
Duration                    : 1h 53mn
Bit rate                    : 8 145 Kbps
Width                       : 1 280 pixels
Height                      : 720 pixels
Display aspect ratio        : 16:9
Frame rate mode             : Constant
Frame rate                  : 23.976 fps
Color space                 : YUV
Chroma subsampling          : 4:2:0
Bit depth                   : 8 bits
Scan type                   : Progressive
Bits/(Pixel*Frame)          : 0.369
Stream size                 : 6.44 GiB (81%)
Title                       : Щоденники принцеси 2: Королівські заручини / The Princess Diaries 2: Royal Engagement (2004) 720p [EbP]
Writing library             : core 125 r2208 d9d2288
Encoding settings           : cabac=1 / ref=9 / deblock=1:-3:-3 / analyse=0x3:0x113 / me=tesa / subme=11 / psy=1 / psy_rd=1.00:0.00 / mixed_ref=1 / me_range=16 / chroma_me=1 / trellis=2 / 8x8dct=1 / cqm=0 / deadzone=21,11 / fast_pskip=0 / chroma_qp_offset=-2 / threads=12 / lookahead_threads=2 / sliced_threads=0 / nr=0 / decimate=0 / interlaced=0 / bluray_compat=0 / constrained_intra=0 / bframes=11 / b_pyramid=2 / b_adapt=2 / b_bias=0 / direct=3 / weightb=1 / open_gop=0 / weightp=2 / keyint=250 / keyint_min=23 / scenecut=40 / intra_refresh=0 / rc=crf / mbtree=0 / crf=16.0 / qcomp=0.60 / qpmin=0 / qpmax=69 / qpstep=4 / ip_ratio=1.40 / pb_ratio=1.30 / aq=1:0.60
Language                    : English
Default                     : Yes
Forced                      : No
Color range                 : Limited
Matrix coefficients         : BT.709
DURATION                    : 01:53:13.078000000
NUMBER_OF_FRAMES            : 162871
NUMBER_OF_BYTES             : 7083046920
_STATISTICS_WRITING_APP     : mkvmerge v8.3.0 ('Over the Horizon') 64bit
_STATISTICS_WRITING_DATE_UT : 2015-09-05 16:30:55
_STATISTICS_TAGS            : BPS DURATION NUMBER_OF_FRAMES NUMBER_OF_BYTES

Audio #1
ID                          : 2
Format                      : AC-3
Format/Info                 : Audio Coding 3
Mode extension              : CM (complete main)
Format settings, Endianness : Big
Codec ID                    : A_AC3
Duration                    : 1h 53mn
Bit rate mode               : Constant
Bit rate                    : 192 Kbps
Channel(s)                  : 2 channels
Channel positions           : Front: L R
Sampling rate               : 48.0 KHz
Compression mode            : Lossy
Stream size                 : 155 MiB (2%)
Title                       : DVO [1+1] 2.0 192 kbps [Hurtom-dbdeveloper,igor911]
Language                    : Ukrainian
Default                     : Yes
Forced                      : No

Audio #2
ID                          : 3
Format                      :
Format/Info                 : Digital Theater Systems
Mode                        : 16
Format settings, Endianness : Big
Codec ID                    : A_DTS
Duration                    : 1h 53mn
Bit rate mode               : Constant
Bit rate                    : 1 509 Kbps
Channel(s)                  : 6 channels
Channel positions           : Front: L C R, Side: L R, LFE
Sampling rate               : 48.0 KHz
Bit depth                   : 24 bits
Compression mode            : Lossy
Delay relative to video     : 6ms
Stream size                 : 1.19 GiB (15%)
Title                       : Original 5.1 1509 kbps
Language                    : English
Default                     : No
Forced                      : No

Text #1
ID                          : 4
Format                      : UTF-8
Codec ID                    : S_TEXT/UTF8
Codec ID/Info               : UTF-8 Plain Text
Title                       : Ukr forced
Language                    : Ukrainian
Default                     : Yes
Forced                      : Yes

Text #2
ID                          : 5
Format                      : UTF-8
Codec ID                    : S_TEXT/UTF8
Codec ID/Info               : UTF-8 Plain Text
Title                       : Eng full
Language                    : English
Default                     : No
Forced                      : No

Menu
00:00:00.000                : en:00:00:00.000
00:09:47.879                : en:00:09:47.879
00:17:43.187                : en:00:17:43.187
00:31:55.789                : en:00:31:55.789
00:35:54.444                : en:00:35:54.444
00:45:33.856                : en:00:45:33.856
00:52:37.404                : en:00:52:37.404
01:00:02.057                : en:01:00:02.057
01:08:09.127                : en:01:08:09.127
01:19:08.452                : en:01:19:08.452
01:26:03.533                : en:01:26:03.533
01:41:44.140                : en:01:41:44.140



Джерела та подяки:
ріп відео - EbP (HDbits); українські доріжки - Arsenfpu (1), dbdeveloper, igor911 (2); фільмографія та інформація про озвучення - Віктор (всі - Гуртом).





ЗАЛИШАЙТЕСЬ ЯКОМОГА ДОВШЕ НА РОЗДАЧІ!

СКАЧАВ САМ - ДАЙ СКАЧАТИ ІНШИМ


Срібний реліз (на рейтинг впливає 50% завантаженого)
 Трекер:    Зареєстрований   

Завантажити / скачати фільм українською



відео для новачків



 Зареєстрований:   2015-09-06 09:56
 Розмір:   16.25 GB 
 Оцінка фільму:   3.6/10 (Голосів: 14)
   
Ваш часовий пояс: GMT + 2 Години

Нова тема   Відповісти