Завантажити та скачати торренти українською


За бортом / Overboard (1987) Remux 1080p 3xUkr/Eng | Sub Eng

Нові коментарі

Нова тема   Відповісти
Останній раз роздавалося tzapik (2016-12-09)
Автор Повідомлення
Alex60 
Забанено
Забанено


З нами з: 06.12.14
Востаннє: 24.07.16
Повідомлень: 40

2015-09-05 19:29  
За бортом / Overboard (1987) Remux 1080p 3xUkr/Eng | Sub Eng

За бортом / Overboard (1987) Remux 1080p 3xUkr/Eng | Sub Eng


Жанр: мелодрама, комедія, романтичний
Країна: США



Кінокомпанія: Metro-Goldwyn-Mayer (MGM), Hawn/Sylbert Movie Company
Режисер: Гаррі Маршал
Актори: Голді Хоун, Курт Расел, Едвард Германн та інші

Сюжет:
Джоанна Стейтон - владна, зарозуміла й непоступлива дружина самовпевненого власника яхти. Коли їх посудина зупиняється для ремонту у невеличкому містечку, сварлива й химерна Джоанна наймає теслю Діна Проффітта, щоб той змайстрував їй нову шафку. Але замість платні за роботу Діна жбурнули з яхти, тому що Джоанна ніколи нічим не буває задоволена. Але цього разу її фірмові вихиляси закінчуються тим, що вона падає за борт і геть втрачає пам'ять. А Дін тим часом здійснює неперевершений план помсти: він забирає Джоанну до себе, дає їй нове ім'я Енн й називає своєю дружиною й матір'ю своїх чотирьох неслухняних синів...


Тривалість: 01:52:10
Якість: Remux
Відео:
кодек:
розмір кадру: 1920 х 1080
бітрейт: 35200 кб/с

Аудіо # 1:
мова: українська
переклад: професійний дубльований [ТЕТ]
кодек: 2.0
бітрейт: 192 кб/с

Аудіо # 2:
мова: українська
переклад: багатоголосий закадровий [Так Треба Продакшн]
кодек: 5.1
бітрейт: 448 кб/с

Аудіо # 3:
мова: українська
переклад: багатоголосий закадровий [ICTV]
кодек: 2.0
бітрейт: 224 кб/с

Аудіо # 4:
мова: англійська
переклад: оригінал
кодек: 2.0
бітрейт: 1509 кб/с

Субтитри:
мова: англійська
тип: програмні (м'які)
формат: *.srt
MediaInfo
General
Unique ID : 177141738113612463293702057861479637173 (0x854441FE1775F76A8FF91939CA17A0B5)
Complete name : S:\Overboard [1987] Remux 1080p UkrEng.mkv
Format : Matroska
Format version : Version 4 / Version 2
File size : 30.0 GiB
Duration : 1h 52mn
Overall bit rate mode : Variable
Overall bit rate : 38.3 Mbps
Encoded date : UTC 2015-09-05 15:46:05
Writing application : mkvmerge v8.3.0 ('Over the Horizon') 64bit
Writing library : libebml v1.3.1 + libmatroska v1.4.2
Attachements : cover.jpg
DURATION : 01:52:10.516000000
NUMBER_OF_FRAMES : 161371
NUMBER_OF_BYTES : 30263802702
_STATISTICS_WRITING_APP : mkvmerge v8.3.0 ('Over the Horizon') 64bit
_STATISTICS_WRITING_DATE_UTC : 2015-09-05 15:46:05
_STATISTICS_TAGS : BPS DURATION NUMBER_OF_FRAMES NUMBER_OF_BYTES

Video
ID : 1
Format : AVC
Format/Info : Advanced Video Codec
Format profile : [email protected]
Format settings, CABAC : Yes
Format settings, ReFrames : 4 frames
Codec ID : V_MPEG4/ISO/AVC
Duration : 1h 52mn
Bit rate mode : Variable
Bit rate : 35.2 Mbps
Maximum bit rate : 39.0 Mbps
Width : 1 920 pixels
Height : 1 080 pixels
Display aspect ratio : 16:9
Frame rate mode : Constant
Frame rate : 23.976 fps
Color space : YUV
Chroma subsampling : 4:2:0
Bit depth : 8 bits
Scan type : Progressive
Bits/(Pixel*Frame) : 0.708
Stream size : 27.6 GiB (92%)
Language : English
Default : Yes
Forced : No
Color range : Limited
Color primaries : BT.709
Transfer characteristics : BT.709
Matrix coefficients : BT.709

Audio #1
ID : 2
Format : AC-3
Format/Info : Audio Coding 3
Mode extension : CM (complete main)
Format settings, Endianness : Big
Codec ID : A_AC3
Duration : 1h 52mn
Bit rate mode : Constant
Bit rate : 192 Kbps
Channel(s) : 2 channels
Channel positions : Front: L R
Sampling rate : 48.0 KHz
Compression mode : Lossy
Stream size : 154 MiB (1%)
Title : Dolby Digital | 2.0 | 48 kHz | 16 bit | 192 kbps | Дубляж [ТЕТ]
Language : Ukrainian
Default : No
Forced : No

Audio #2
ID : 3
Format : AC-3
Format/Info : Audio Coding 3
Mode extension : CM (complete main)
Format settings, Endianness : Big
Codec ID : A_AC3
Duration : 1h 52mn
Bit rate mode : Constant
Bit rate : 448 Kbps
Channel(s) : 6 channels
Channel positions : Front: L C R, Side: L R, LFE
Sampling rate : 48.0 KHz
Compression mode : Lossy
Delay relative to video : 18ms
Stream size : 359 MiB (1%)
Title : Dolby Digital | 5.1 | 48 kHz | 16 bit | 448 kbps | Багатоголосый [Так Треба Продакшн]
Language : Ukrainian
Default : No
Forced : No

Audio #3
ID : 4
Format : AC-3
Format/Info : Audio Coding 3
Mode extension : CM (complete main)
Format settings, Endianness : Big
Codec ID : A_AC3
Duration : 1h 52mn
Bit rate mode : Constant
Bit rate : 224 Kbps
Channel(s) : 2 channels
Channel positions : Front: L R
Sampling rate : 48.0 KHz
Compression mode : Lossy
Stream size : 180 MiB (1%)
Title : Dolby Digital | 2.0 | 48 kHz | 16 bit | 224 kbps | Багатоголосый [ICTV]
Language : Ukrainian
Default : No
Forced : No

Audio #4
ID : 5
Format :
Format/Info : Digital Theater Systems
Mode : 16
Format settings, Endianness : Big
Codec ID : A_DTS
Duration : 1h 52mn
Bit rate mode : Constant
Bit rate : 1 509 Kbps
Channel(s) : 2 channels
Channel positions : Front: L R
Sampling rate : 48.0 KHz
Bit depth : 24 bits
Compression mode : Lossy
Stream size : 1.18 GiB (4%)
Title : | 2.0 | 48 kHz | 24 bit | 1509 kbps | Original
Language : English
Default : No
Forced : No

Text
ID : 6
Format : UTF-8
Codec ID : S_TEXT/UTF8
Codec ID/Info : UTF-8 Plain Text
Title : Full [STR]
Language : English
Default : No
Forced : No

Menu
00:00:00.000 : en:Logo/Main Title
00:03:27.999 : en:Meeting Joanna
00:08:07.237 : en:Dean Gets Fired
00:12:45.848 : en:Of Mummies & Monsters
00:15:35.685 : en:Overboard...
00:17:37.265 : en:...And Ill-Mannered
00:21:05.139 : en:The Bitch!
00:22:50.160 : en:...And The Pitch
00:26:45.938 : en:I Just Ate A Bug!
00:28:22.868 : en:Meeting The Monsters
00:33:15.452 : en:Burn Victim
00:35:51.941 : en:I'm A Short, Fat Slut
00:38:28.806 : en:The Dream
00:41:42.917 : en:Scores Of Chores
00:45:27.391 : en:Finding A Memory
00:47:31.807 : en:Photographic Evidence
00:49:44.231 : en:Payback Is Swell
00:54:49.578 : en:Anal Compulsive Hun
00:58:58.368 : en:Parent-To-Parent Talk
01:04:32.827 : en:French & Fertilizer
01:08:01.995 : en:The Wonders Of Golf
01:10:20.883 : en:Dean's Confession
01:13:43.169 : en:Arturo & Katarina
01:19:13.791 : en:A Snag In The Wool
01:24:26.687 : en:The Grand Opening
01:26:17.339 : en:Grant Returns
01:30:00.645 : en:Leaving Elk Cove
01:33:16.257 : en:Almost Fully Recovered
01:37:15.455 : en:Andrew's Insight
01:41:06.894 : en:You Left Me There
01:43:24.740 : en:Arturo & Katarina II
01:49:41.325 : en:End Credits
Скріншоти


Джерело:
Особиста оцінка: 10 - без зайвих вагань рекомендую всім!


Золотий реліз (завантажене не впливає на рейтинг)
 Трекер:    Зареєстрований   

Завантажити / скачати фільм українською



відео для новачків



 Зареєстрований:   2015-09-05 19:29
 Розмір:   30.05 GB 
 Оцінка фільму:   9.7/10 (Голосів: 10)
   
Інші релізи
   За бортом / Overboard (1987) 1080p 3xUkr/Eng | Sub Eng Alex60  2 / 0   12.67 GB   2015-09-05 19:17 
   За бортом / Overboard (1987) 3xUkr/Eng | Sub Eng omm  2 / 1   1.95 GB   2015-03-01 17:36 
   За бортом / Overboard (1987) 720p 2хUkr/Eng | Sub Eng igor911  1 / 0   6.45 GB   2014-11-07 17:46 
   За бортом / Overboard (1987) 2хUkr/Eng | Sub Eng rooster  3 / 0   2.01 GB   2011-02-26 02:00 
   За бортом / Overboard (1987) Ukr/Eng | Sub Eng rooster  1 / 0   2.19 GB   2010-10-07 17:31 
bot 
робот


З нами з: 30.09.07
Востаннє: 26.05.05
Повідомлень: 16038

2016-07-24 22:13  
Тему перенесено з Фільми в HD до форуму Фінальний смітник


Alex60

bot 
робот


З нами з: 30.09.07
Востаннє: 26.05.05
Повідомлень: 16038

2016-07-25 13:31  
Тему перенесено з Фінальний смітник до форуму Фільми в HD


igor911

ipromik 
Новенький


З нами з: 28.10.13
Востаннє: 08.12.16
Повідомлень: 2

2016-07-29 18:58  
Дякую за реліз
помпую до колекції Wide grin
хто не бачив рекомендую

Ваш часовий пояс: GMT + 2 Години

Нова тема   Відповісти