Завантажити та скачати торренти українською


Втеча / La carapate (1978) 2xUkr/Fra | Sub Fra/Eng

Нові коментарі

Нова тема   Відповісти
Автор Повідомлення
Anonymous 







2015-09-03 21:04  
Втеча / La carapate (1978) 2xUkr/Fra | Sub Fra/Eng



Оригінальні обкладинки та постери




повнорозмірні зображення відкриються по кліку (з натиснутим CTRL чи кліком середньою кнопкою мишки - у іншій вкладці)


Жанр: кримінальна комедія
Країна: Франція



Кінокомпанія: Gaumont International
Режисер: Жерар Урі / Gérard Oury
Актори: П’єр Рішар / Pierre Richard, Віктор Лану / Victor Lanoux, Жак Франц / Jacques Frantz, Жен-П'єр Дарра / Jean-Pierre Darras, Робер Дальбан / Robert Dalban, Клод Броссе / Claude Brosset, Раймон Бюссьєр / Raymond Bussieres, Клер Рішар / Claire Richard, Бланш Равалео / Blanche Ravaleo, Бернар Гранже / Bernard Granger, Адрієн Кайла-Легран / Adrien Cayla-Legrand та інші

Сюжет:
Адвокат Дюрок відвідує свого клієнта у камері смертників. Раптово у в'язниці починається бунт, і адвокат-недотепа тікає разом з іншими ув'язненими, рятуючись від куль поліцейських. Також тікає і його підзахисний Голар, якого поліція вважає організатором всіх заворушень. Незліченні погоні, веселі й пікантні ситуації, загальна небезпека зближують героїв і вони стають друзями...


Вікова категорія: 12+

Тривалість: 01:39:47
Якість:
Відео:
кодек: build 65
розмір кадру: 720x432
бітрейт: 1880 кбіт/с

Аудіо # 1:
мова: українська
переклад: двоголосий закадровий
ролі озвучили: Олександр Завальський і Ніна Касторф
кодек: 2.0
бітрейт: 192 кбіт/с

Аудіо # 2:
мова: українська
переклад: багатоголосий закадровий
ролі озвучили: П'єр Рішар - Анатолій Зіновенко; Матвій Ніколаєв, Тетяна Антонова
кодек: 2.0
бітрейт: 192 кбіт/с

Аудіо # 3:
мова: французька
переклад: оригінал
кодек: 2.0
бітрейт: 192 кбіт/с

Субтитри # 1:
мова: французька (завантажити)
тип: програмні (м'які)
формат: *.srt

Субтитри # 2:
мова: англійська (завантажити)
тип: програмні (м'які)
формат: *.srt
MediaInfo
Код:
General
Complete name               : La carapate (1978) [2xUkr,Fre] [Hurtom & HQClub].avi
Format                      : AVI
Format/Info                 : Audio Video Interleave
File size                   : 1.72 GiB
Duration                    : 1h 39mn
Overall bit rate            : 2 475 Kbps
Movie name                  : Втеча / The Escape / Out of It / La carapate / Побег (1978)
Director                    : igor911& yaroslaigor
Genre                       : комедія, кримінал
Writing application         : VirtualDubModRus 1.5.10.2 (build 2540/release)
Writing library             : VirtualDubMod build 2540/release
Copyright                   : Hurtom & HQClub
Comment                     : 14.08.2015

Video
ID                          : 0
Format                      : MPEG-4 Visual
Format profile              : Advanced [email protected]
Format settings, BVOP       : 1
Format settings, QPel       : No
Format settings, GMC        : No warppoints
Format settings, Matrix     : Custom
Codec ID                    :
Codec ID/Hint               :
Duration                    : 1h 39mn
Bit rate                    : 1 880 Kbps
Width                       : 720 pixels
Height                      : 432 pixels
Display aspect ratio        : 5:3
Frame rate                  : 24.000 fps
Color space                 : YUV
Chroma subsampling          : 4:2:0
Bit depth                   : 8 bits
Scan type                   : Progressive
Compression mode            : Lossy
Bits/(Pixel*Frame)          : 0.252
Stream size                 : 1.31 GiB (76%)
Writing library             : 65

Audio #1
ID                          : 1
Format                      : AC-3
Format/Info                 : Audio Coding 3
Mode extension              : CM (complete main)
Format settings, Endianness : Big
Codec ID                    : 2000
Duration                    : 1h 39mn
Bit rate mode               : Constant
Bit rate                    : 192 Kbps
Channel(s)                  : 2 channels
Channel positions           : Front: L R
Sampling rate               : 48.0 KHz
Compression mode            : Lossy
Stream size                 : 137 MiB (8%)
Alignment                   : Split accross interleaves
Interleave, duration        : 42 ms (1.00 video frame)
Interleave, preload duratio : 500 ms
Title                       : DVO [1+1]

Audio #2
ID                          : 2
Format                      : AC-3
Format/Info                 : Audio Coding 3
Mode extension              : CM (complete main)
Format settings, Endianness : Big
Codec ID                    : 2000
Duration                    : 1h 39mn
Bit rate mode               : Constant
Bit rate                    : 192 Kbps
Channel(s)                  : 2 channels
Channel positions           : Front: L R
Sampling rate               : 48.0 KHz
Compression mode            : Lossy
Stream size                 : 137 MiB (8%)
Alignment                   : Split accross interleaves
Interleave, duration        : 42 ms (1.00 video frame)
Interleave, preload duratio : 500 ms
Title                       : MVO [K1]

Audio #3
ID                          : 3
Format                      : AC-3
Format/Info                 : Audio Coding 3
Mode extension              : CM (complete main)
Format settings, Endianness : Big
Codec ID                    : 2000
Duration                    : 1h 39mn
Bit rate mode               : Constant
Bit rate                    : 192 Kbps
Channel(s)                  : 2 channels
Channel positions           : Front: L R
Sampling rate               : 48.0 KHz
Compression mode            : Lossy
Stream size                 : 137 MiB (8%)
Alignment                   : Split accross interleaves
Interleave, duration        : 42 ms (1.00 video frame)
Interleave, preload duratio : 500 ms
Title                       : Original




Джерела та подяки: &
ріп відео - yaroslaigor (HQClub); українські доріжки - _oles (2+2), bodia87 (К1) - зведення, Karvai, ratbol - запис з ТБ; фільмографія та інформація про озвучення - Віктор (всі - Гуртом).

Особиста оцінка: 8 - мені сподобалося

ЗАЛИШАЙТЕСЬ ЯКОМОГА ДОВШЕ НА РОЗДАЧІ!

СКАЧАВ САМ - ДАЙ СКАЧАТИ ІНШИМ


Срібний реліз (на рейтинг впливає 50% завантаженого)
 Трекер:    Зареєстрований   

Завантажити / скачати фільм українською



відео для новачків



 Зареєстрований:   2015-09-03 21:04
 Розмір:   1.72 GB 
 Оцінка фільму:   4.3/10 (Голосів: 19)
   
Інші релізи
   Втеча / La carapate (1978) 720p 2xUkr/Fra | Sub Fra/Eng igor911  1 / 0   5.68 GB   2015-09-03 20:49 
   Втеча / La carapate (1978) AVC 2xUkr/Fra bodia87  4 / 0   1.86 GB   2013-07-19 14:18 
Ваш часовий пояс: GMT + 2 Години

Нова тема   Відповісти