Завантажити та скачати торренти українською


Втеча / La carapate (1978) 720p 2xUkr/Fra | Sub Fra/Eng

Нові коментарі

Нова тема   Відповісти
Автор Повідомлення
Anonymous 







2015-09-03 20:49  
Втеча / La carapate (1978) 720p 2xUkr/Fra | Sub Fra/Eng



Оригінальні обкладинки та постери




повнорозмірні зображення відкриються по кліку (з натиснутим CTRL чи кліком середньою кнопкою мишки - у іншій вкладці)


Жанр: кримінальна комедія
Країна: Франція



Кінокомпанія: Gaumont International
Режисер: Жерар Урі / Gérard Oury
Актори: П’єр Рішар / Pierre Richard, Віктор Лану / Victor Lanoux, Жак Франц / Jacques Frantz, Жен-П'єр Дарра / Jean-Pierre Darras, Робер Дальбан / Robert Dalban, Клод Броссе / Claude Brosset, Раймон Бюссьєр / Raymond Bussieres, Клер Рішар / Claire Richard, Бланш Равалео / Blanche Ravaleo, Бернар Гранже / Bernard Granger, Адрієн Кайла-Легран / Adrien Cayla-Legrand та інші

Сюжет:
Адвокат Дюрок відвідує свого клієнта у камері смертників. Раптово у в'язниці починається бунт, і адвокат-недотепа тікає разом з іншими ув'язненими, рятуючись від куль поліцейських. Також тікає і його підзахисний Голар, якого поліція вважає організатором всіх заворушень. Незліченні погоні, веселі й пікантні ситуації, загальна небезпека зближують героїв і вони стають друзями...


Вікова категорія: 12+

Тривалість: 01:39:47
Якість: 720p
Відео:
кодек:
розмір кадру: 1194 x 720
бітрейт: 7000 кбіт/с

Аудіо # 1:
мова: українська
переклад: двоголосий закадровий
ролі озвучили: Олександр Завальський і Ніна Касторф
кодек: 2.0
бітрейт: 192 кбіт/с

Аудіо # 2:
мова: українська
переклад: багатоголосий закадровий
ролі озвучили: П'єр Рішар - Анатолій Зіновенко; Матвій Ніколаєв, Тетяна Антонова
кодек: 2.0
бітрейт: 192 кбіт/с

Аудіо # 3:
мова: французька
переклад: оригінал
кодек: 2.0
бітрейт: 768 кбіт/с

Субтитри # 1:
мова: французька
тип: програмні (м'які)
формат: *.srt

Субтитри # 2:
мова: англійська
тип: програмні (м'які)
формат: *.srt
MediaInfo
Код:
General
Unique ID                   : 206702252678275001110889171598246679773 (0x9B8167E28B4A38809E34C348B87414DD)
Complete name               : La carapate (1978) [2xUkr,Fra sub.Fra,Eng] 720p [Hurtom].mkv
Format                      : Matroska
Format version              : Version 4 / Version 2
File size                   : 5.68 GiB
Duration                    : 1h 39mn
Overall bit rate            : 8 154 Kbps
Movie name                  : Втеча / La carapate (1978) [2xUkr,Fra sub.Fra,Eng] 720p [Hurtom]
Encoded date                : UTC 2015-09-03 16:19:59
Writing application         : mkvmerge v8.3.0 ('Over the Horizon') 64bit
Writing library             : libebml v1.3.1 + libmatroska v1.4.2
Attachements                : cover.jpg
DURATION                    : 01:36:24.141000000
NUMBER_OF_FRAMES            : 737
NUMBER_OF_BYTES             : 33709
_STATISTICS_WRITING_APP     : mkvmerge v8.3.0 ('Over the Horizon') 64bit
_STATISTICS_WRITING_DATE_UT : 2015-09-03 16:19:59
_STATISTICS_TAGS            : BPS DURATION NUMBER_OF_FRAMES NUMBER_OF_BYTES

Video
ID                          : 1
Format                      : AVC
Format/Info                 : Advanced Video Codec
Format profile              : [email protected]
Format settings, CABAC      : Yes
Format settings, ReFrames   : 9 frames
Codec ID                    : V_MPEG4/ISO/AVC
Duration                    : 1h 39mn
Bit rate                    : 7 000 Kbps
Width                       : 1 194 pixels
Height                      : 720 pixels
Display aspect ratio        : 5:3
Frame rate mode             : Constant
Frame rate                  : 24.000 fps
Color space                 : YUV
Chroma subsampling          : 4:2:0
Bit depth                   : 8 bits
Scan type                   : Progressive
Bits/(Pixel*Frame)          : 0.339
Stream size                 : 4.77 GiB (84%)
Title                       : Втеча / The Escape / Out of It / La carapate / Побег (1978) 720p
Writing library             : core 142 r2431 ac76440
Encoding settings           : cabac=1 / ref=9 / deblock=1:-3:-3 / analyse=0x3:0x133 / me=umh / subme=10 / psy=1 / psy_rd=1.00:0.10 / mixed_ref=1 / me_range=48 / chroma_me=1 / trellis=2 / 8x8dct=1 / cqm=0 / deadzone=21,11 / fast_pskip=0 / chroma_qp_offset=-3 / threads=6 / lookahead_threads=1 / sliced_threads=0 / nr=0 / decimate=1 / interlaced=0 / bluray_compat=0 / constrained_intra=0 / bframes=5 / b_pyramid=2 / b_adapt=2 / b_bias=0 / direct=3 / weightb=1 / open_gop=0 / weightp=2 / keyint=240 / keyint_min=22 / scenecut=40 / intra_refresh=0 / rc_lookahead=40 / rc=2pass / mbtree=1 / bitrate=7000 / ratetol=1.0 / qcomp=0.60 / qpmin=10 / qpmax=51 / qpstep=4 / cplxblur=20.0 / qblur=0.5 / ip_ratio=1.40 / aq=1:1.00
Language                    : French
Default                     : Yes
Forced                      : No
DURATION                    : 01:39:47.042000000
NUMBER_OF_FRAMES            : 143689
NUMBER_OF_BYTES             : 5237963435
_STATISTICS_WRITING_APP     : mkvmerge v8.3.0 ('Over the Horizon') 64bit
_STATISTICS_WRITING_DATE_UT : 2015-09-03 16:19:59
_STATISTICS_TAGS            : BPS DURATION NUMBER_OF_FRAMES NUMBER_OF_BYTES

Audio #1
ID                          : 2
Format                      : AC-3
Format/Info                 : Audio Coding 3
Mode extension              : CM (complete main)
Format settings, Endianness : Big
Codec ID                    : A_AC3
Duration                    : 1h 39mn
Bit rate mode               : Constant
Bit rate                    : 192 Kbps
Channel(s)                  : 2 channels
Channel positions           : Front: L R
Sampling rate               : 48.0 KHz
Compression mode            : Lossy
Stream size                 : 137 MiB (2%)
Title                       : DVO [1+1] 2.0 192 kbps [Hurtom-_oles]
Language                    : Ukrainian
Default                     : Yes
Forced                      : No

Audio #2
ID                          : 3
Format                      : AC-3
Format/Info                 : Audio Coding 3
Mode extension              : CM (complete main)
Format settings, Endianness : Big
Codec ID                    : A_AC3
Duration                    : 1h 39mn
Bit rate mode               : Constant
Bit rate                    : 192 Kbps
Channel(s)                  : 2 channels
Channel positions           : Front: L R
Sampling rate               : 48.0 KHz
Compression mode            : Lossy
Stream size                 : 137 MiB (2%)
Title                       : MVO [K1] 2.0 192 kbps [Hurtom-bodia87]
Language                    : Ukrainian
Default                     : No
Forced                      : No

Audio #3
ID                          : 4
Format                      :
Format/Info                 : Digital Theater Systems
Mode                        : 16
Format settings, Endianness : Big
Codec ID                    : A_DTS
Duration                    : 1h 39mn
Bit rate mode               : Constant
Bit rate                    : 768 Kbps
Channel(s)                  : 2 channels
Channel positions           : Front: L R
Sampling rate               : 48.0 KHz
Bit depth                   : 16 bits
Compression mode            : Lossy
Stream size                 : 548 MiB (9%)
Title                       : Original 2.0 768 kbps
Language                    : French
Default                     : No
Forced                      : No

Text #1
ID                          : 5
Format                      : UTF-8
Codec ID                    : S_TEXT/UTF8
Codec ID/Info               : UTF-8 Plain Text
Title                       : Fre full
Language                    : French
Default                     : No
Forced                      : No

Text #2
ID                          : 6
Format                      : UTF-8
Codec ID                    : S_TEXT/UTF8
Codec ID/Info               : UTF-8 Plain Text
Title                       : Eng full
Language                    : English
Default                     : No
Forced                      : No




Джерела та подяки: &
ріп відео - першоджерело невідоме; українські доріжки - _oles (2+2), bodia87 (К1) - зведення, Karvai, ratbol - запис з ТБ; фільмографія та інформація про озвучення - Віктор (всі - Гуртом).

Особиста оцінка: 8 - мені сподобалося

ЗАЛИШАЙТЕСЬ ЯКОМОГА ДОВШЕ НА РОЗДАЧІ!

СКАЧАВ САМ - ДАЙ СКАЧАТИ ІНШИМ


Срібний реліз (на рейтинг впливає 50% завантаженого)
 Трекер:    Зареєстрований   

Завантажити / скачати фільм українською



відео для новачків



 Зареєстрований:   2015-09-03 20:49
 Розмір:   5.68 GB 
 Оцінка фільму:   3.4/10 (Голосів: 14)
   
Інші релізи
   Втеча / La carapate (1978) 2xUkr/Fra | Sub Fra/Eng igor911  1 / 0   1.72 GB   2015-09-03 21:04 
   Втеча / La carapate (1978) AVC 2xUkr/Fra bodia87  3 / 0   1.86 GB   2013-07-19 14:18 
Ваш часовий пояс: GMT + 2 Години

Нова тема   Відповісти