Завантажити та скачати торренти українською


Гарлі (Харлі, Харлей) Девідсон та ковбой Мальборо / Harley Davidson and the Marlboro Man (1991) 2xUkr/Eng | Sub Eng

Нові коментарі

Нова тема   Відповісти
Автор Повідомлення
Anonymous 







2015-09-03 10:41  
Гарлі Девідсон та ковбой Мальборо / Harley Davidson and the Marlboro Man (1991) 2xUkr/Eng | Sub Eng



Альтернативні постери


повнорозмірні зображення відкриються по кліку (з натиснутим CTRL чи кліком середньою кнопкою мишки - у іншій вкладці)


Жанр: бойовик, трилер, драма, кримінальний, вестерн
Країна: США



Кінокомпанія: Krisjair, Laredo, Metro-Goldwyn-Mayer (MGM)
Режисер: Саймон Вінцер / Simon Wincer
Актори: Міккі Рурк / Mickey Rourke, Дон Джонсон / Don Johnson), Челсі Філд / Chelsea Field, Даніел Болдуін / Daniel Baldwin, Тіа Каррере / Tia Carrere та інші

Сюжет:
Молодий хлопець на ім'я Гарлі Девідсон повертається у своє рідне місто, Лос-Анджелес. Тут він зустрічає свого найкращого друга - ковбоя Мальборо. Випадково друзі дізнаються, що у хазяїна бару, у якому вони буквально виросли, проблеми з оплатою оренди банку. Гарлі, Мальборо та ще кілька їхніх друзів вирішують пограбувати саме цей банк. Але у броньовику замість грошей вони знаходять наркотики та проблеми...


Рейтинг MPAA: R - особам до 17 років обов'язкова присутність батьків або дорослого опікуна
Вікова категорія: 16+

Тривалість: 01:38:26
Якість:
Відео:
кодек: build 65
розмір кадру: 720 х 384
бітрейт: 1910 кбіт/с

Аудіо # 1:
мова: українська
переклад: багатоголосий закадровий - Так Треба Продакшн на замовлення телеканалу "Інтер"
кодек: 2.0
бітрейт: 192 кбіт/с

Аудіо # 2:
мова: українська
переклад: двоголосий закадровий
кодек: 2.0
бітрейт: 192 кбіт/с

Аудіо # 3:
мова: англійська
переклад: оригінал
кодек: 2.0
бітрейт: 192 кбіт/с

Субтитри:
мова: англійська (завантажити: повні, SDH)
тип: програмні (м'які)
формат: *.srt
MediaInfo
Код:
General
Complete name               : Harley Davidson and the Marlboro Man (1991) [2xUkr,Eng] [Hurtom&HQClub].avi
Format                      : AVI
Format/Info                 : Audio Video Interleave
File size                   : 1.72 GiB
Duration                    : 1h 38mn
Overall bit rate            : 2 505 Kbps
Movie name                  : Гарлі Девідсон та ковбой Мальборо / Harley Davidson and the Marlboro Man (1991)
Director                    : igor911 & sociolog_melvas
Genre                       : бойовик, трилер, драма, кримінал, вестерн
Writing application         : VirtualDubModRus 1.5.10.2 (build 2540/release)
Writing library             : VirtualDubMod build 2540/release
Copyright                   : Hurtom & HQClub
Comment                     : 30.08.2015

Video
ID                          : 0
Format                      : MPEG-4 Visual
Format profile              : Advanced [email protected]
Format settings, BVOP       : 1
Format settings, QPel       : No
Format settings, GMC        : No warppoints
Format settings, Matrix     : Custom
Codec ID                    :
Codec ID/Hint               :
Duration                    : 1h 38mn
Bit rate                    : 1 910 Kbps
Width                       : 704 pixels
Height                      : 384 pixels
Display aspect ratio        : 1.85:1
Frame rate                  : 23.976 fps
Color space                 : YUV
Chroma subsampling          : 4:2:0
Bit depth                   : 8 bits
Scan type                   : Progressive
Compression mode            : Lossy
Bits/(Pixel*Frame)          : 0.295
Stream size                 : 1.31 GiB (76%)
Writing library             : 65

Audio #1
ID                          : 1
Format                      : AC-3
Format/Info                 : Audio Coding 3
Format profile              : Dolby Digital
Mode extension              : CM (complete main)
Format settings, Endianness : Big
Codec ID                    : 2000
Duration                    : 1h 38mn
Bit rate mode               : Constant
Bit rate                    : 192 Kbps
Channel(s)                  : 2 channels
Channel positions           : Front: L R
Sampling rate               : 48.0 KHz
Compression mode            : Lossy
Stream size                 : 135 MiB (8%)
Alignment                   : Split accross interleaves
Interleave, duration        : 42 ms (1.00 video frame)
Interleave, preload duratio : 500 ms
Title                       : UKR MVO [TTP-Inter]

Audio #2
ID                          : 2
Format                      : AC-3
Format/Info                 : Audio Coding 3
Format profile              : Dolby Digital
Mode extension              : CM (complete main)
Format settings, Endianness : Big
Codec ID                    : 2000
Duration                    : 1h 38mn
Bit rate mode               : Constant
Bit rate                    : 192 Kbps
Channel(s)                  : 2 channels
Channel positions           : Front: L R
Sampling rate               : 48.0 KHz
Compression mode            : Lossy
Stream size                 : 135 MiB (8%)
Alignment                   : Split accross interleaves
Interleave, duration        : 42 ms (1.00 video frame)
Interleave, preload duratio : 500 ms
Title                       : UKR DVO [2+2]

Audio #3
ID                          : 3
Format                      : AC-3
Format/Info                 : Audio Coding 3
Mode extension              : CM (complete main)
Format settings, Endianness : Big
Codec ID                    : 2000
Duration                    : 1h 38mn
Bit rate mode               : Constant
Bit rate                    : 192 Kbps
Channel(s)                  : 2 channels
Channel positions           : Front: L R
Sampling rate               : 48.0 KHz
Compression mode            : Lossy
Stream size                 : 135 MiB (8%)
Alignment                   : Split accross interleaves
Interleave, duration        : 42 ms (1.00 video frame)
Interleave, preload duratio : 500 ms
Title                       : Eng Original




Джерела та подяки: &
ріп відео, оригінальні звук та субтитри - sociolog_melvas (HQClub); українські доріжки - robotron005 - зведення, robotron005 (1), SweetN (2) - запис з ТБ; українізовані постери - Ermolenko, Alex60; фільмографія - Neo777 (всі - Гуртом).

Особиста оцінка: 8 - мені сподобалося






ЗАЛИШАЙТЕСЬ ЯКОМОГА ДОВШЕ НА РОЗДАЧІ!

СКАЧАВ САМ - ДАЙ СКАЧАТИ ІНШИМ


Срібний реліз (на рейтинг впливає 50% завантаженого)
 Трекер:    Зареєстрований   

Завантажити / скачати фільм українською



відео для новачків



 Зареєстрований:   2015-09-03 10:41
 Розмір:   1.72 GB 
 Оцінка фільму:   4.6/10 (Голосів: 19)
   
-VipeR- 
VIP


З нами з: 17.07.08
Востаннє: 11.12.16
Повідомлень: 275

2015-09-03 20:30  
Дорогі українці Нам вже назву фільму навіть на афіші написали а ми знову від Московії ні на крок. Ну чому ж рідний і правильний переклад - Гакслі - в дужки брати
Anonymous 







2015-09-03 20:38  
-VipeR-, читай Правила і все зрозумієш.

Додано через 46 секунд:

-VipeR- написано:
і правильний переклад - Гакслі

до речі, який Гакслі?

Додано через 2 хвилини 23 секунди:

Правила оформлення відео-релізу написано:
п.2 ...Обов'язково вказувати назву фільму, яку йому дала студія озвучення. Якщо назва має декілька варіантів або релізер хоче дати свій, вони пишуться


Додано через 2 хвилини 20 секунд:

і 2+2 і тим паче Інтер з ТТП назвали фільм "Харлей...", хоча у перекладі 2+2 називають ГГ Гарлі.

Додано через 1 хвилину 19 секунд:

а афішу я сам переробляв з варіанту Alex60.

Ua.bos_01 
VIP


З нами з: 22.06.15
Востаннє: 06.12.16
Повідомлень: 1291

2015-09-06 22:04  
Хороший, якісний бойовичок 90-х років. Присутній гумор, цікавий сюжет, молоді актори мого дитинства. Раджу до перегляду.
outlaw rider 
Новенький


З нами з: 26.03.15
Востаннє: 22.10.16
Повідомлень: 1

2016-08-15 16:20  
харлей це англомовно слово, гарлі це якийсь пекельний пздц, вибачьте
Merck 
Новенький


З нами з: 08.12.08
Востаннє: 10.12.16
Повідомлень: 4

2016-08-16 06:11  
-VipeR- написано:
Дорогі українці Нам вже назву фільму навіть на афіші написали а ми знову від Московії ні на крок. Ну чому ж рідний і правильний переклад - Гакслі - в дужки брати

У всьому світі: Хітлер, Холлівуд, Халлє
На росії: Гітлєр, Галлівуд, Галлє

Тобто в багатьох випадках Г замість Х це як раз таки русизм Wink (1)

medved666 
Свій


З нами з: 11.04.15
Востаннє: 11.12.16
Повідомлень: 55

2016-08-26 00:02  
хто такий Гакслі?
Ваш часовий пояс: GMT + 2 Години

Нова тема   Відповісти