Завантажити та скачати торренти українською


Невинищений Шпигун / Spy Hard (1996) 1080p Ukr/Eng | Sub Eng

Нові коментарі

Нова тема   Відповісти
Останній раз роздавалося Fish2048 (2016-12-06)
Автор Повідомлення
Alex60 
Забанено
Забанено


З нами з: 06.12.14
Востаннє: 24.07.16
Повідомлень: 40

2015-08-31 11:35  
Невинищений Шпигун / Spy Hard (1996) 1080p Ukr/Eng | Sub Eng

Невинищений Шпигун / Spy Hard (1996) 1080p Ukr/Eng | Sub Eng


Жанр: комедія, пародія
Країна: США



Кінокомпанія: Hollywood Pictures
Режисер: Рік Фрідберг
Актори: Леслі Нільсен, Николлетт Шерідан, Чарльз Дернінг, Марша Гей Харден, Беррі Бостуїк, Енді Грифіт, Рей Чарлз, Роберт Калп, Тері "Халк" Хоган та інші.

Сюжет:
Секретний агент ВД - 40 повинен розладнати підступний план суперворога генерала Ранкора - божевільного психопата, що втратив руки під час вибуху, - але він озброєний і дуже небезпечний! Місія суперагента - врятувати світ від руйнування, визволити дочку своєю загиблою багато років тому подруги, і, звичайно ж, упровадитися в ряди терористів разом зі своїм сексуальним напарником.


Тривалість: 01:17:37
Якість:
Відео:
кодек:
розмір кадру: 1920 х 1032
бітрейт: 9200 кб/с

Аудіо # 1:
мова: українська
переклад: багатоголосий закадровий [ICTV]
кодек: 5.1
бітрейт: 384 кб/с

Аудіо # 2:
мова: англійська
переклад: оригінал
кодек: 5.1
бітрейт: 384 кб/с

Субтитри: [Full]
мова: англійська
тип: програмні (м'які)
формат: *.srt
MediaInfo
General
Unique ID : 177732357570309126889790257384808642496 (0x85B601C7ADFE0C8F9DA980EE90A9F7C0)
Complete name : S:\Spy Hard [1996] 1080p UkrEng.mkv
Format : Matroska
Format version : Version 4 / Version 2
File size : 5.41 GiB
Duration : 1h 17mn
Overall bit rate : 9 970 Kbps
Encoded date : UTC 2015-08-30 21:01:07
Writing application : mkvmerge v6.8.0 ('Theme for Great Cities') 64bit built on Mar 2 2014 21:34:26
Writing library : libebml v1.3.0 + libmatroska v1.4.1
Attachements : cover.jpg

Video
ID : 1
Format : AVC
Format/Info : Advanced Video Codec
Format profile : [email protected]
Format settings, CABAC : Yes
Format settings, ReFrames : 4 frames
Codec ID : V_MPEG4/ISO/AVC
Duration : 1h 17mn
Bit rate : 9 200 Kbps
Width : 1 920 pixels
Height : 1 032 pixels
Display aspect ratio : 1.85:1
Frame rate mode : Constant
Frame rate : 25.000 fps
Color space : YUV
Chroma subsampling : 4:2:0
Bit depth : 8 bits
Scan type : Progressive
Bits/(Pixel*Frame) : 0.186
Stream size : 4.88 GiB (90%)
Title : Video
Writing library : core 130 r2273 b3065e6
Encoding settings : cabac=1 / ref=4 / deblock=1:-1:-1 / analyse=0x3:0x113 / me=umh / subme=11 / psy=1 / psy_rd=1.00:0.15 / mixed_ref=1 / me_range=32 / chroma_me=1 / trellis=2 / 8x8dct=1 / cqm=0 / deadzone=21,11 / fast_pskip=0 / chroma_qp_offset=2 / threads=6 / lookahead_threads=1 / sliced_threads=0 / nr=0 / decimate=1 / interlaced=0 / bluray_compat=0 / constrained_intra=0 / bframes=10 / b_pyramid=2 / b_adapt=2 / b_bias=0 / direct=3 / weightb=1 / open_gop=1 / weightp=2 / keyint=250 / keyint_min=23 / scenecut=40 / intra_refresh=0 / rc_lookahead=50 / rc=2pass / mbtree=1 / bitrate=9200 / ratetol=1.0 / qcomp=0.69 / qpmin=0 / qpmax=69 / qpstep=4 / cplxblur=20.0 / qblur=0.5 / ip_ratio=1.40 / aq=1:1.00
Language : English
Default : Yes
Forced : No

Audio #1
ID : 2
Format : AC-3
Format/Info : Audio Coding 3
Mode extension : CM (complete main)
Format settings, Endianness : Big
Codec ID : A_AC3
Duration : 1h 17mn
Bit rate mode : Constant
Bit rate : 384 Kbps
Channel(s) : 6 channels
Channel positions : Front: L C R, Side: L R, LFE
Sampling rate : 48.0 KHz
Compression mode : Lossy
Stream size : 213 MiB (4%)
Title : Dolby Digital | 5.1 | 48 kHz | 16 bit | 384 kbps | Багатоголосий [ICTV]
Language : Ukrainian
Default : Yes
Forced : No

Audio #2
ID : 3
Format : AC-3
Format/Info : Audio Coding 3
Mode extension : CM (complete main)
Format settings, Endianness : Big
Codec ID : A_AC3
Duration : 1h 17mn
Bit rate mode : Constant
Bit rate : 384 Kbps
Channel(s) : 6 channels
Channel positions : Front: L C R, Side: L R, LFE
Sampling rate : 48.0 KHz
Compression mode : Lossy
Stream size : 213 MiB (4%)
Title : Dolby Digital | 5.1 | 48 kHz | 16 bit | 384 kbps | Original
Language : English
Default : No
Forced : No

Text
ID : 4
Format : UTF-8
Codec ID : S_TEXT/UTF8
Codec ID/Info : UTF-8 Plain Text
Title : Full [Str]
Language : English
Default : No
Forced : No

Menu
00:00:00.000 : en:Program Start/This Is Your Mission
00:04:16.285 : en:Opening Credits
00:06:54.160 : en:15 Years Later
00:09:35.002 : en:Covert Operations
00:26:52.081 : en:Sitting with the Director
00:28:51.241 : en:Spy Toys
00:30:31.668 : en:Welcome to L.A.
00:36:11.161 : en:Speeding
00:40:29.761 : en:Danger at the Disco
00:45:41.200 : en:Equestrian Event
00:48:19.880 : en:Dr. Ukrinsky
00:50:25.640 : en:A Top Agent
00:53:42.521 : en:Saved by the Sister
00:57:56.960 : en:Testament of Love
01:00:53.361 : en:Thug Terror
01:06:28.280 : en:Assault Attack
01:14:11.304 : en:End Credits
Скріншоти





Джерело:


Срібний реліз (на рейтинг впливає 50% завантаженого)
 Трекер:    Зареєстрований   

Завантажити / скачати фільм українською



відео для новачків



 Зареєстрований:   2015-08-31 11:35
 Розмір:   5.41 GB 
 Оцінка фільму:   10/10 (Голосів: 5)
   
Інші релізи
   Невинищений Шпигун / Spy Hard (1996) abodnya  5 / 0   1.67 GB   2010-01-26 23:17 
osozo 
Новенький


З нами з: 11.08.10
Востаннє: 04.12.16
Повідомлень: 16

2015-08-31 15:29  
Це ICTV так перекладає - невинищений? Вперше чую таке слово. Цікаво, що воно мало б означати?
Alex60 
Забанено
Забанено


З нами з: 06.12.14
Востаннє: 24.07.16
Повідомлень: 40

2015-08-31 15:34  
Так ICTV переклало.
Віктор 
Відео Гуртом - субтитрування
Відео Гуртом - субтитрування


З нами з: 09.01.10
Востаннє: 06.12.16
Повідомлень: 8663

2015-09-01 00:12  
Какофонія в доріжці є? http://toloka.to/t10677#140703
bot 
робот


З нами з: 30.09.07
Востаннє: 26.05.05
Повідомлень: 16012

2016-07-24 22:14  
Тему перенесено з Фільми в HD до форуму Фінальний смітник


Alex60

bot 
робот


З нами з: 30.09.07
Востаннє: 26.05.05
Повідомлень: 16012

2016-07-25 13:32  
Тему перенесено з Фінальний смітник до форуму Фільми в HD


igor911

Ваш часовий пояс: GMT + 2 Години

Нова тема   Відповісти