Завантажити та скачати торренти українською


Прибульці / Les visiteurs (1993) 720p Ukr/Fra | Sub Fra/Eng

Нові коментарі

Нова тема   Відповісти
Автор Повідомлення
Anonymous 







2015-08-30 20:11  
Прибульці / Les visiteurs (1993) 720p Ukr/Fra | Sub Fra/Eng



Жанр: фентезі, комедія
Країна: Франція



Кінокомпанія: Alpilles Productions, Amigo Productions, Canal+, France 3 Cinéma, Gaumont International
Режисер: Жан-Марі Пуаре / Jean-Marie Poiré
Актори: Крістіан Клав'є / Christian Clavier, Жан Рено / Jean Reno, Валері Лемерсьє / Valérie Lemercier, Марі-Анн Шазель / Marie-Anne Chazel, Крістіан Бюжо / Christian Bujeau, Ізабель Нанті / Isabelle Nanty, Жерар Мережі / Gérard Séty, Дідьє Пен / Didier Pain, Жан-Поль Мюель / Jean-Paul Muel, Аріель Семенофф / Arielle Sémenoff та інші

Сюжет:
Франція 1122 рік. Граф Годфруа де Монмірай ставши жертвою прокляття злої чаклунки, вбиває батька своєї нареченої. Годфруа звертається за допомогою до великого чарівника Евсебіуса, який пропонує графу відправитись коридорами часу в минуле і виправити свою помилку.
Де Монмірай погоджується на цю пропозицію, але через помилку чарівника він та його слуга потрапляють у 90-і роки нашого часу. У ХХ столітті їх чекає багато пригод і зустріч зі своїми нащадками ...


Рейтинг MPAA: R - особам до 17 років обов'язкова присутність батьків або дорослого опікуна
Вікова категорія: 16+

Тривалість: 01:46:44
Якість: 720p
Відео:
кодек:
розмір кадру: 1280 х 544
бітрейт: 6500 кбіт/с

Аудіо # 1:
мова: українська
переклад: багатоголосий закадровий
кодек: 2.0
бітрейт: 192 кбіт/с

Аудіо # 2:
мова: французька
переклад: оригінал
кодек: 5.1
бітрейт: 640 кбіт/с

Субтитри # 1-2:
мова: французька (форсовані, повні)
тип: програмні (м'які)
формат: *.srt

Субтитри # 3:
мова: англійська (повні)
тип: програмні (м'які)
формат: *.srt

Збережено оригінальні розділи, як на Blu-ray.
MediaInfo
Код:
General
Unique ID                   : 234497459922720090932375635322151495684 (0xB06A91681B4CA99CA4ECB1AEA23DE804)
Complete name               : Les visiteurs (1993) [Ukr,Fre sub.Fre,Eng] 720p [Hurtom & HDClub].mkv
Format                      : Matroska
Format version              : Version 4 / Version 2
File size                   : 5.47 GiB
Duration                    : 1h 46mn
Overall bit rate            : 7 335 Kbps
Movie name                  : Прибульці / Les visiteurs (1993) [Ukr,Fre sub.Fre,Eng] 720p [Hurtom & HDClub]
Encoded date                : UTC 2015-08-28 19:23:56
Writing application         : mkvmerge v8.3.0 ('Over the Horizon') 64bit
Writing library             : libebml v1.3.1 + libmatroska v1.4.2
Attachements                : cover.jpg
DURATION                    : 01:46:16.083000000
NUMBER_OF_FRAMES            : 1769
NUMBER_OF_BYTES             : 48389
_STATISTICS_WRITING_APP     : mkvmerge v8.3.0 ('Over the Horizon') 64bit
_STATISTICS_WRITING_DATE_UT : 2015-08-28 19:23:56
_STATISTICS_TAGS            : BPS DURATION NUMBER_OF_FRAMES NUMBER_OF_BYTES

Video
ID                          : 1
Format                      : AVC
Format/Info                 : Advanced Video Codec
Format profile              : [email protected]
Format settings, CABAC      : Yes
Format settings, ReFrames   : 12 frames
Codec ID                    : V_MPEG4/ISO/AVC
Duration                    : 1h 46mn
Bit rate                    : 6 500 Kbps
Width                       : 1 280 pixels
Height                      : 544 pixels
Display aspect ratio        : 2.35:1
Frame rate mode             : Constant
Frame rate                  : 24.000 fps
Color space                 : YUV
Chroma subsampling          : 4:2:0
Bit depth                   : 8 bits
Scan type                   : Progressive
Bits/(Pixel*Frame)          : 0.389
Stream size                 : 4.74 GiB (87%)
Title                       : Прибульці / Les visiteurs / Пришельцы (1993) 720p [SbR]
Writing library             : core 146 r0+2586 e393126 t_mod_Custom [[email protected] X86_64]
Encoding settings           : cabac=1 / ref=12 / deblock=1:-3:-3 / analyse=0x3:0x133 / me=umh / subme=11 / psy=1 / fade_compensate=0.00 / psy_rd=1.00:0.05 / mixed_ref=1 / me_range=24 / chroma_me=1 / trellis=2 / 8x8dct=1 / cqm=0 / deadzone=21,11 / fast_pskip=0 / chroma_qp_offset=-3 / threads=6 / lookahead_threads=1 / sliced_threads=0 / nr=0 / decimate=1 / interlaced=0 / bluray_compat=0 / constrained_intra=0 / fgo=0 / bframes=11 / b_pyramid=2 / b_adapt=2 / b_bias=0 / direct=3 / weightb=1 / open_gop=0 / weightp=2 / keyint=250 / keyint_min=24 / scenecut=40 / intra_refresh=0 / rc=2pass / mbtree=0 / bitrate=6500 / ratetol=1.0 / qcomp=0.60 / qpmin=0:0:0 / qpmax=69:69:69 / qpstep=4 / cplxblur=20.0 / qblur=0.5 / ip_ratio=1.40 / pb_ratio=1.30 / aq=1:0.70 / aq-sensitivity=10.00 / aq-factor=1.00:1.00:1.00 / aq2=0 / aq3=0
Language                    : English
Default                     : Yes
Forced                      : No
Color range                 : Limited
Matrix coefficients         : BT.709
DURATION                    : 01:46:44.000000000
NUMBER_OF_FRAMES            : 153696
NUMBER_OF_BYTES             : 5203265900
_STATISTICS_WRITING_APP     : mkvmerge v8.3.0 ('Over the Horizon') 64bit
_STATISTICS_WRITING_DATE_UT : 2015-08-28 19:23:56
_STATISTICS_TAGS            : BPS DURATION NUMBER_OF_FRAMES NUMBER_OF_BYTES

Audio #1
ID                          : 2
Format                      : AC-3
Format/Info                 : Audio Coding 3
Mode extension              : CM (complete main)
Format settings, Endianness : Big
Codec ID                    : A_AC3
Duration                    : 1h 46mn
Bit rate mode               : Constant
Bit rate                    : 192 Kbps
Channel(s)                  : 2 channels
Channel positions           : Front: L R
Sampling rate               : 48.0 KHz
Compression mode            : Lossy
Stream size                 : 147 MiB (3%)
Title                       : MVO [1+1] 2.0 192 kbps
Language                    : Ukrainian
Default                     : Yes
Forced                      : No

Audio #2
ID                          : 3
Format                      : AC-3
Format/Info                 : Audio Coding 3
Mode extension              : CM (complete main)
Format settings, Endianness : Big
Codec ID                    : A_AC3
Duration                    : 1h 46mn
Bit rate mode               : Constant
Bit rate                    : 640 Kbps
Channel(s)                  : 6 channels
Channel positions           : Front: L C R, Side: L R, LFE
Sampling rate               : 48.0 KHz
Compression mode            : Lossy
Stream size                 : 489 MiB (9%)
Title                       : Original 5.1 640 kbps
Language                    : French
Default                     : No
Forced                      : No

Text #1
ID                          : 4
Format                      : UTF-8
Codec ID                    : S_TEXT/UTF8
Codec ID/Info               : UTF-8 Plain Text
Title                       : Fre forced
Language                    : French
Default                     : No
Forced                      : No

Text #2
ID                          : 5
Format                      : UTF-8
Codec ID                    : S_TEXT/UTF8
Codec ID/Info               : UTF-8 Plain Text
Title                       : Fre full
Language                    : French
Default                     : No
Forced                      : No

Text #3
ID                          : 6
Format                      : UTF-8
Codec ID                    : S_TEXT/UTF8
Codec ID/Info               : UTF-8 Plain Text
Title                       : Eng full
Language                    : English
Default                     : No
Forced                      : No

Menu
00:00:00.000                : en:00:00:00.000
00:04:59.125                : en:00:04:59.125
00:06:17.415                : en:00:06:17.415
00:10:07.125                : en:00:10:07.125
00:14:34.541                : en:00:14:34.541
00:18:20.915                : en:00:18:20.915
00:22:16.875                : en:00:22:16.875
00:25:13.333                : en:00:25:13.333
00:29:37.790                : en:00:29:37.790
00:33:15.790                : en:00:33:15.790
00:35:24.666                : en:00:35:24.666
00:38:21.041                : en:00:38:21.041
00:42:04.041                : en:00:42:04.041
00:53:32.833                : en:00:53:32.833
00:59:41.541                : en:00:59:41.541
01:02:28.000                : en:01:02:28.000
01:10:19.416                : en:01:10:19.416
01:16:14.166                : en:01:16:14.166
01:21:41.957                : en:01:21:41.957
01:25:12.666                : en:01:25:12.666
01:29:47.541                : en:01:29:47.541
01:31:47.582                : en:01:31:47.582
01:35:07.707                : en:01:35:07.707
01:40:34.457                : en:01:40:34.457
01:43:21.125                : en:01:43:21.125
Оригінал <----------> Ріп








Джерела та подяки: &
ріп відео, оригінальні звук та субтитри - SbR (HDbits), delia (HDClub); українська доріжка - Cupper (HDClub) - зведення, nick_89 (Гуртом) - запис з ТБ; фільмографія - Тирік (Гуртом).






ЗАЛИШАЙТЕСЬ ЯКОМОГА ДОВШЕ НА РОЗДАЧІ!

СКАЧАВ САМ - ДАЙ СКАЧАТИ ІНШИМ


Срібний реліз (на рейтинг впливає 50% завантаженого)
 Трекер:    Зареєстрований   

Завантажити / скачати фільм українською



відео для новачків



 Зареєстрований:   2015-08-30 20:11
 Розмір:   5.47 GB 
 Оцінка фільму:   6.4/10 (Голосів: 26)
   
Purdun 
Свій


З нами з: 05.09.13
Востаннє: 29.08.16
Повідомлень: 82

2016-02-17 21:49  
ппц, після 18-ти голосів тільки 4.8 оцінка. Що вам тоді треба - якесь лайно.
Це кіно крутяк, я аж плакав від сміху.

Anonymous 







2016-02-17 22:00  
Purdun, оцінки у всіх моїх релізах замінусовано скриптом неадеквата сімби, тому навряд чи варто їм довіряти.
Ваш часовий пояс: GMT + 2 Години

Нова тема   Відповісти