Завантажити та скачати торренти українською


Ця незручна мить / Un moment d'égarement (2015) 1080p

Нові коментарі

Нова тема   Відповісти
Автор Повідомлення
Anonymous 







2015-08-30 16:40  
Ця незручна мить / Un moment d'égarement (2015) 1080p

Ця незручна мить / Un moment d'égarement (2015) 1080p


Жанр: комедія
Країна: Франція



Кінокомпанія: La Petite Reine
Режисер: Жан-Франсуа Ріше
Актори: Венсан Кассель, Франсуа Клюзе, Лола Ле Ланн, Еліс Ісаас

Сюжет:
Двоє нерозлучних друзів проводять відпустку на Рив’єрі зі своїми доньками. На сонячних пляжах сорокадворічному батькові сімейства не встояти перед чарами спокусливої сімнадцятирічної красуні. Він по вуха закохується. І все б нічого, та тільки чарівна дівчина є донькою його найкращого друга — суворого батька, котрий погрожує пристрелити кожного, хто підійде ближче, ніж на крок до його улюбленої крихітки.


Тривалість: 01:45:29
Якість: 1080p
Відео:
кодек:
розмір кадру: 1920 х 1036
бітрейт: 4942 кб/с

Аудіо:
мова: українська
переклад: багатоголосий закадровий
кодек: 2.0 (стерео)
бітрейт: 192 кб/с
MediaInfo:
General
Unique ID : 238395017108062537565862260558989323666 (0xB35935CFEFCCAE95996CFD147DB76D92)
Complete name : D:\Un moment d'égarement (2015) 1080p [Hurtom].mkv
Format : Matroska
Format version : Version 4 / Version 2
File size : 3.78 GiB
Duration : 1h 45mn
Overall bit rate : 5 125 Kbps
Encoded date : UTC 2015-08-30 14:34:03
Writing application : mkvmerge v8.2.0 ('World of Adventure') 64bit
Writing library : libebml v1.3.1 + libmatroska v1.4.2
DURATION : 01:45:30.464000000
NUMBER_OF_FRAMES : 197827
NUMBER_OF_BYTES : 151931136
_STATISTICS_WRITING_APP : mkvmerge v8.2.0 ('World of Adventure') 64bit
_STATISTICS_WRITING_DATE_UT : 2015-08-30 14:34:03
_STATISTICS_TAGS : BPS DURATION NUMBER_OF_FRAMES NUMBER_OF_BYTES

Video
ID : 1
Format : AVC
Format/Info : Advanced Video Codec
Format profile : [email protected]
Format settings, CABAC : Yes
Format settings, ReFrames : 4 frames
Codec ID : V_MPEG4/ISO/AVC
Duration : 1h 45mn
Bit rate : 4 942 Kbps
Width : 1 920 pixels
Height : 1 036 pixels
Display aspect ratio : 1.85:1
Frame rate mode : Constant
Frame rate : 25.000 fps
Color space : YUV
Chroma subsampling : 4:2:0
Bit depth : 8 bits
Scan type : Progressive
Bits/(Pixel*Frame) : 0.099
Stream size : 3.56 GiB (94%)
Writing library : core 142
Encoding settings : cabac=1 / ref=3 / deblock=1:0:0 / analyse=0x3:0x113 / me=hex / subme=7 / psy=1 / psy_rd=1.00:0.00 / mixed_ref=1 / me_range=16 / chroma_me=1 / trellis=1 / 8x8dct=1 / cqm=0 / deadzone=21,11 / fast_pskip=1 / chroma_qp_offset=-2 / threads=8 / lookahead_threads=1 / sliced_threads=0 / nr=0 / decimate=1 / interlaced=0 / bluray_compat=0 / constrained_intra=0 / bframes=6 / b_pyramid=2 / b_adapt=1 / b_bias=0 / direct=1 / weightb=1 / open_gop=0 / weightp=2 / keyint=200 / keyint_min=20 / scenecut=0 / intra_refresh=0 / rc_lookahead=40 / rc=2pass / mbtree=1 / bitrate=4942 / ratetol=1.0 / qcomp=0.60 / qpmin=0 / qpmax=69 / qpstep=4 / cplxblur=20.0 / qblur=0.5 / vbv_maxrate=7413 / vbv_bufsize=19768 / nal_hrd=none / filler=0 / ip_ratio=1.40 / aq=1:1.00
Language : English
Default : Yes
Forced : No

Audio
ID : 2
Format : AC-3
Format/Info : Audio Coding 3
Mode extension : CM (complete main)
Format settings, Endianness : Big
Codec ID : A_AC3
Duration : 1h 45mn
Bit rate mode : Constant
Bit rate : 192 Kbps
Channel(s) : 2 channels
Channel positions : Front: L R
Sampling rate : 48.0 KHz
Compression mode : Lossy
Stream size : 145 MiB (4%)
Language : Ukrainian
Default : Yes
Forced : No


Підтримати купівлю інших фільмів можна тут.


Джерело:


 Трекер:    Зареєстрований   

Завантажити / скачати фільм українською



відео для новачків



 Зареєстрований:   2015-08-30 16:40
 Розмір:   3.78 GB 
 Оцінка фільму:   6.8/10 (Голосів: 41)
   
Інші релізи
   Ця незручна мить / Un moment d'égarement (2015) AVC AngryBirdsUA  3 / 0   1.45 GB   2015-12-27 19:23 
   Ця незручна мить / Un moment d'égarement (2015) AngryBirdsUA  10 / 0   1.46 GB   2015-12-27 19:10 
casper101 
Свій


З нами з: 03.12.09
Востаннє: 03.12.16
Повідомлень: 88

2016-01-17 22:28  
А ЧИ БУДЕ В 720p ЯКОСТІ????????
Ваш часовий пояс: GMT + 2 Години

Нова тема   Відповісти